Video Sources 0 Views

  • Watch trailer
And I Hate You So (2000)

And I Hate You So (2000)

Jun. 30, 2000Hong Kong96 Min.N/A
Your rating: 0
6 1 vote

Synopsis

Luna Ng is a columnist who gave her first boyfriend a vinyl record as a gift. She later discovers that same vinyl record in a second hand store so she attempts to buy it back. However, another person ends up buying it before her. She finds out that the new owner of the record is Cheung Yung, a radio host. Luna ends up both loving and detesting Yung after he comments on her love life on radio. The story is about the battle of two willful and creative characters.

And I Hate You So (2000) 1080p BRrip HEVC 10bit Opus 2.0 PoOlLa (950 MB)

Format : Matroska
Format version : Version 4
File size : 952 MiB
Duration : 1 h 36 min
Overall bit rate : 1 385 kb/s
Movie name : And I Hate You So (2000) 1080p BRrip HEVC 10bit Opus 2.0 PoOlLa
Writing application : mkvmerge v67.0.0 (‘Under Stars’) 64-bit
Writing library : libebml v1.4.2 + libmatroska v1.6.4

Video
ID : 1
Format : HEVC
Format/Info : High Efficiency Video Coding
Format profile : Main 10@L4@High
Codec ID : V_MPEGH/ISO/HEVC
Duration : 1 h 36 min
Bit rate : 1 238 kb/s
Width : 1 920 pixels
Height : 1 080 pixels
Display aspect ratio : 16:9
Frame rate mode : Constant
Frame rate : 24.000 FPS
Color space : YUV
Chroma subsampling : 4:2:0
Bit depth : 10 bits
Bits/(Pixel*Frame) : 0.025
Stream size : 851 MiB (89%)
Default : Yes
Forced : No
Color range : Limited

Audio
ID : 2
Format : Opus
Codec ID : A_OPUS
Duration : 1 h 36 min
Bit rate : 144 kb/s
Channel(s) : 2 channels
Channel layout : L R
Sampling rate : 48.0 kHz
Frame rate : 50.000 FPS (960 SPF)
Bit depth : 32 bits
Compression mode : Lossy
Delay relative to video : -7 ms
Stream size : 99.2 MiB (10%)
Title : Cantonese
Language : Chinese
Default : Yes
Forced : No

Text
ID : 3
Format : UTF-8
Codec ID : S_TEXT/UTF8
Codec ID/Info : UTF-8 Plain Text
Stream size : 33.2 KiB (0%)
Language : English

Telegram  Download Guide  Donate

And I Hate You So (2000)
And I Hate You So (2000)
Original title 小親親
IMDb Rating 6.1 355 votes
TMDb Rating 5.3 9 votes

Director

Kenneth Yee
Director

Cast

Similar titles

Bullet Train (2022)
Spanish Masala (2012)
Maheshinte Prathikaaram (2016)
Don (2022)
Innale (1989)
Mouna Raagam (1986)
Punch-Drunk Love
Kottayam Kunjachan (1990)
Romans (2013)
O Beautiful Night (2019)
Jolt (2021)
Willy’s Wonderland (2021)