Appan (2022)

Appan (2022)

Your rating: 0
7 1 vote

Synopsis

Itty who is standing in the wilderness of an evil culture and clinging to this attitude in spite of being bedridden for ages. Itty’s son Njoonj, his family and the society wishes for his death.

Appan (2022) 1080p SONYLIV WEB-DL 10bit AV1 AAC 2.0-SMK (670 mB)

Format : Matroska
Format version : Version 4
File size : 673 MiB
Duration : 2 h 9 min
Overall bit rate : 725 kb/s
Writing application : mkvmerge v71.1.0 (‘Fortitude’) 64-bit
Writing library : libebml v1.4.4 + libmatroska v1.7.1 / Lavf59.34.101

Video
ID : 1
Format : AV1
Format/Info : AOMedia Video 1
Format profile : Main@L4.0
Codec ID : V_AV1
Duration : 2 h 9 min
Bit rate : 627 kb/s
Width : 1 422 pixels
Height : 800 pixels
Display aspect ratio : 16:9
Frame rate mode : Constant
Frame rate : 24.000 FPS
Color space : YUV
Chroma subsampling : 4:2:0
Bit depth : 10 bits
Bits/(Pixel*Frame) : 0.023
Stream size : 582 MiB (86%)
Default : Yes
Forced : No
Color range : Limited

Audio
ID : 2
Format : AAC LC SBR
Format/Info : Advanced Audio Codec Low Complexity with Spectral Band Replication
Commercial name : HE-AAC
Format settings : Explicit
Codec ID : A_AAC-2
Duration : 2 h 9 min
Bit rate : 96.0 kb/s
Channel(s) : 2 channels
Channel layout : L R
Sampling rate : 96.0 kHz
Frame rate : 46.875 FPS (2048 SPF)
Compression mode : Lossy
Stream size : 89.1 MiB (13%)
Default : Yes

Telegram  Download Guide  Donate

Director

Director

Cast

Similar titles