Athena (2022)

Athena (2022)

Your rating: 0
6 1 vote

Synopsis

Hours after the tragic death of their youngest brother in unexplained circumstances, three siblings have their lives thrown into chaos.

Athena (2022) 1080p NF WEB-DL HEVC 10bit Opus 5.1 PoOlLa (795 mB)

Format : Matroska
Format version : Version 4
File size : 794 MiB
Duration : 1 h 39 min
Overall bit rate : 1 116 kb/s
Movie name : Athena (2022) 1080p NF WEB-DL HEVC 10bit Opus 5.1 PoOlLa
Encoded date : UTC 2022-09-29 11:44:04
Writing application : mkvmerge v67.0.0 (‘Under Stars’) 64-bit
Writing library : libebml v1.4.2 + libmatroska v1.6.4

Video
ID : 1
Format : HEVC
Format/Info : High Efficiency Video Coding
Format profile : Main 10@L4@High
Codec ID : V_MPEGH/ISO/HEVC
Duration : 1 h 39 min
Bit rate : 916 kb/s
Width : 1 920 pixels
Height : 912 pixels
Display aspect ratio : 2.105
Frame rate mode : Constant
Frame rate : 24.000 FPS
Color space : YUV
Chroma subsampling : 4:2:0
Bit depth : 10 bits
Bits/(Pixel*Frame) : 0.022
Stream size : 652 MiB (82%)
Default : Yes
Forced : No
Color range : Limited

Audio
ID : 2
Format : Opus
Codec ID : A_OPUS
Duration : 1 h 39 min
Bit rate : 197 kb/s
Channel(s) : 6 channels
Channel layout : L R C Lb Rb LFE
Sampling rate : 48.0 kHz
Frame rate : 50.000 FPS (960 SPF)
Bit depth : 32 bits
Compression mode : Lossy
Stream size : 140 MiB (18%)
Language : French
Default : Yes
Forced : No

Text
ID : 3
Format : UTF-8
Codec ID : S_TEXT/UTF8
Codec ID/Info : UTF-8 Plain Text
Language : English

Telegram  Download Guide  Donate

Director

Director

Cast

Similar titles