Video Sources 0 Views

  • Watch trailer
Belle de Jour (1967)

Belle de Jour (1967)

Luis Bunuel's Masterpiece of Erotica!May. 24, 1967France101 Min.R
Your rating: 0
9 1 vote

Synopsis

Beautiful young housewife Séverine Serizy cannot reconcile her masochistic fantasies with her everyday life alongside dutiful husband Pierre. When her lovestruck friend Henri mentions a secretive high-class brothel run by Madame Anais, Séverine begins to work there during the day under the name Belle de Jour. But when one of her clients grows possessive, she must try to go back to her normal life.

Belle De Jour (1967) 1080p Criterion BRrip HEVC 10bit AAC 1.0 PoOlLa (1.35 GB)

Format : Matroska
Format version : Version 4
File size : 1.37 GiB
Duration : 1 h 40 min
Overall bit rate : 1 950 kb/s
Movie name : Belle De Jour (1967) 1080p Criterion BRrip HEVC 10bit AAC 1.0 PoOlLa
Writing application : mkvmerge v67.0.0 (‘Under Stars’) 64-bit
Writing library : libebml v1.4.2 + libmatroska v1.6.4

Video
ID : 1
Format : HEVC
Format/Info : High Efficiency Video Coding
Format profile : Main 10@L4.1@Main
Codec ID : V_MPEGH/ISO/HEVC
Duration : 1 h 40 min
Bit rate : 1 788 kb/s
Width : 1 800 pixels
Height : 1 080 pixels
Display aspect ratio : 5:3
Frame rate mode : Constant
Frame rate : 23.976 (24000/1001) FPS
Color space : YUV
Chroma subsampling : 4:2:0
Bit depth : 10 bits
Bits/(Pixel*Frame) : 0.038
Stream size : 1.25 GiB (92%)
Title : cinemakottaga.top
Default : Yes
Forced : No
Color range : Limited
Color primaries : BT.601 PAL
Transfer characteristics : BT.709
Matrix coefficients : BT.709

Audio
ID : 2
Format : AAC LC
Format/Info : Advanced Audio Codec Low Complexity
Codec ID : A_AAC-2
Duration : 1 h 40 min
Bit rate : 160 kb/s
Channel(s) : 1 channel
Channel layout : C
Sampling rate : 48.0 kHz
Frame rate : 46.875 FPS (1024 SPF)
Compression mode : Lossy
Stream size : 115 MiB (8%)
Language : English
Default : Yes
Forced : No

Text
ID : 3
Format : UTF-8
Codec ID : S_TEXT/UTF8
Codec ID/Info : UTF-8 Plain Text
Language : English

Belle De Jour (1967) 720p Criterion BRrip AV1 10bit Opus 1.0 PoOlLa (525 MB)

Format : Matroska
Format version : Version 4
File size : 525 MiB
Duration : 1 h 40 min
Overall bit rate : 732 kb/s
Movie name : Belle De Jour (1967) 720p Criterion BRrip AV1 10bit Opus 1.0 PoOlLa
Writing application : mkvmerge v67.0.0 (‘Under Stars’) 64-bit
Writing library : libebml v1.4.2 + libmatroska v1.6.4

Video
ID : 1
Format : AV1
Format/Info : AOMedia Video 1
Format profile : Main@L3.1
Codec ID : V_AV1
Duration : 1 h 40 min
Bit rate : 673 kb/s
Width : 1 200 pixels
Height : 720 pixels
Display aspect ratio : 5:3
Frame rate mode : Constant
Frame rate : 23.976 (24000/1001) FPS
Color space : YUV
Chroma subsampling : 4:2:0
Bit depth : 10 bits
Bits/(Pixel*Frame) : 0.032
Stream size : 482 MiB (92%)
Default : Yes
Forced : No
Color range : Limited
Color primaries : BT.709
Transfer characteristics : BT.709
Matrix coefficients : BT.709

Audio
ID : 2
Format : Opus
Codec ID : A_OPUS
Duration : 1 h 40 min
Bit rate : 56.2 kb/s
Channel(s) : 1 channel
Channel layout : C
Sampling rate : 48.0 kHz
Frame rate : 50.000 FPS (960 SPF)
Compression mode : Lossy
Stream size : 40.3 MiB (8%)
Language : French
Default : Yes
Forced : No

Text
ID : 3
Format : UTF-8
Codec ID : S_TEXT/UTF8
Codec ID/Info : UTF-8 Plain Text
Language : English

Telegram  Download Guide  Donate

Belle de Jour (1967)
Belle de Jour (1967)
Belle de Jour (1967)
Belle de Jour (1967)
Belle de Jour (1967)
Belle de Jour (1967)
Belle de Jour (1967)
Belle de Jour (1967)
Belle de Jour (1967)
Belle de Jour (1967)
Original title Belle de jour
IMDb Rating 7.7 44,673 votes
TMDb Rating 7.434 661 votes

Director

Luis Buñuel
Director

Cast

Catherine Deneuve isSéverine Serizy
Séverine Serizy
Jean Sorel isPierre Serizy
Pierre Serizy
Michel Piccoli isHenri Husson
Henri Husson
Geneviève Page isMadame Anais
Madame Anais
Muni isPallas
Pallas
Maria Latour isMathilde
Mathilde
Claude Cerval is(uncredited)
(uncredited)

Similar titles

Rope (1948)
Simple Simon (2010)
Sardar Udham (2021)
Mosul (2020)
Buñuel in the Labyrinth of the Turtles (2019)
Palthu Janwar (2022)
The Social Dilemma (2020)
Coolie No. 1 (2020)
Sarkar (2018)
303 (2018)
Kayamkulam Kochunni (2018)
C’mon C’mon (2021)