Bheeshma Parvam (2022)

Bheeshma Parvam (2022)

Mar. 03, 2022India144 Min.N/A
Your rating: 0
9.8 5 votes

Synopsis

Set in the backdrop of 1980s, Micheal helms his influential family in Kochi, inspiring fear and respect through his unnerving past. When a few younger members in the household feel his power over their lives too are aggravating, they join hands with foes to clamp down on him. And the story follows what’s in store for them.

 

 

Bheeshma.Parvam.2022.WEB-DL.1080p.x265.Opus 7.1(190 Kbps).Yautja (814.19 MB)

Format : Matroska
Format version : Version 4
File size : 814 MiB
Duration : 2 h 22 min
Overall bit rate : 800 kb/s
Movie name : Bheeshma.Parvam.2022.WEB-DL.1080p.x265.Opus 7.1 (190 Kbps).Yautja
Encoded date : UTC 2022-04-03 17:04:08
Writing application : mkvmerge v59.0.0 (‘Shining Star’) 64-bit
Writing library : libebml v1.4.2 + libmatroska v1.6.4
Cover : Yes
Attachments : cover.jpg
Encoded And Ripped By : Yautja | CinemaKottaga.top

Video
ID : 1
Format : HEVC
Format/Info : High Efficiency Video Coding
Format profile : Main@L4@Main
Codec ID : V_MPEGH/ISO/HEVC
Duration : 2 h 22 min
Bit rate : 608 kb/s
Width : 1 920 pixels
Height : 1 080 pixels
Display aspect ratio : 16:9
Frame rate mode : Constant
Frame rate : 24.000 FPS
Color space : YUV
Chroma subsampling : 4:2:0
Bit depth : 8 bits
Bits/(Pixel*Frame) : 0.012
Stream size : 618 MiB (76%)
Writing library : x265 3.5+9-bf91444e0:[Windows][GCC 10.2.0][64 bit] 8bit
Language : Malayalam
Default : Yes
Forced : No
Color range : Limited

Audio
ID : 2
Format : Opus
Codec ID : A_OPUS
Duration : 2 h 22 min
Bit rate : 190 kb/s
Channel(s) : 8 channels
Channel layout : L R C Ls Rs Lb Rb LFE
Sampling rate : 48.0 kHz
Frame rate : 50.000 FPS (960 SPF)
Compression mode : Lossy
Stream size : 193 MiB (24%)
Title : Opus 7.1 190 Kbps
Writing library : Lavc59.1.100 libopus
Language : Malayalam
Default : Yes
Forced : No

Text
ID : 3
Format : UTF-8
Codec ID : S_TEXT/UTF8
Codec ID/Info : UTF-8 Plain Text
Duration : 2 h 17 min
Bit rate : 48 b/s
Count of elements : 1224
Stream size : 48.7 KiB (0%)
Title : eng
Language : English
Default : Yes
Forced : No

GD  

Bheeshma.Parvam.2022.WEB-DL.720p.x265.10bit.Opus 2.0 (100 Kbps).Yautja (815.54 MB)

Format : Matroska
Format version : Version 4
File size : 816 MiB
Duration : 2 h 22 min
Overall bit rate : 801 kb/s
Movie name : Bheeshma.Parvam.2022.WEB-DL.720p.x265.10bit.Opus 2.0 (100 Kbps).Yautja
Encoded date : UTC 2022-04-04 11:17:52
Writing application : mkvmerge v59.0.0 (‘Shining Star’) 64-bit
Writing library : libebml v1.4.2 + libmatroska v1.6.4
Cover : Yes
Attachments : cover.jpg
Encoded And Ripped By : Yautja | CinemaKottaga.top

Video
ID : 1
Format : HEVC
Format/Info : High Efficiency Video Coding
Format profile : Main 10@L3.1@Main
Codec ID : V_MPEGH/ISO/HEVC
Duration : 2 h 22 min
Bit rate : 699 kb/s
Width : 1 280 pixels
Height : 720 pixels
Display aspect ratio : 16:9
Frame rate mode : Constant
Frame rate : 24.000 FPS
Color space : YUV
Chroma subsampling : 4:2:0
Bit depth : 10 bits
Bits/(Pixel*Frame) : 0.032
Stream size : 711 MiB (87%)
Writing library : x265 3.5+10+13-7c9bc0cb14:[Windows][GCC 10.2.0][64 bit] 10bit
Language : Malayalam
Default : Yes
Forced : No
Color range : Limited

Audio
ID : 2
Format : Opus
Codec ID : A_OPUS
Duration : 2 h 22 min
Bit rate : 100.0 kb/s
Channel(s) : 2 channels
Channel layout : L R
Sampling rate : 48.0 kHz
Frame rate : 50.000 FPS (960 SPF)
Compression mode : Lossy
Stream size : 102 MiB (12%)
Title : Opus 2.0 100 Kbps
Writing library : Lavc59.1.100 libopus
Language : Malayalam
Default : Yes
Forced : No

Text
ID : 3
Format : UTF-8
Codec ID : S_TEXT/UTF8
Codec ID/Info : UTF-8 Plain Text
Duration : 2 h 17 min
Bit rate : 48 b/s
Count of elements : 1224
Stream size : 48.7 KiB (0%)
Title : eng
Language : English
Default : Yes
Forced : No

GD  

 

Bheeshma Parvam (2022) 2160p DSNP WEB-DL HEVC 10bit DDP 5.1 PoOlLa (2.55 GB)

Format : Matroska
Format version : Version 4
File size : 2.58 GiB
Duration : 2 h 22 min
Overall bit rate : 2 592 kb/s
Writing application : mkvmerge v65.0.0 (‘Too Much’) 32-bit
Writing library : libebml v1.4.2 + libmatroska v1.6.4

Video
ID : 1
Format : HEVC
Format/Info : High Efficiency Video Coding
Format profile : Main 10@L5@High
Codec ID : V_MPEGH/ISO/HEVC
Duration : 2 h 22 min
Bit rate : 2 398 kb/s
Width : 3 840 pixels
Height : 1 616 pixels
Display aspect ratio : 2.40:1
Frame rate mode : Constant
Frame rate : 24.000 FPS
Color space : YUV
Chroma subsampling : 4:2:0
Bit depth : 10 bits
Bits/(Pixel*Frame) : 0.016
Stream size : 2.38 GiB (93%)
Color range : Limited

Audio
ID : 2
Format : E-AC-3
Format/Info : Enhanced AC-3
Commercial name : Dolby Digital Plus
Codec ID : A_EAC3
Duration : 2 h 22 min
Bit rate mode : Constant
Bit rate : 192 kb/s
Channel(s) : 6 channels
Channel layout : L R C LFE Ls Rs
Sampling rate : 48.0 kHz
Frame rate : 31.250 FPS (1536 SPF)
Bit depth : 32 bits
Compression mode : Lossy
Stream size : 195 MiB (7%)
Title : Malayalam
Language : Malayalam
Service kind : Complete Main

Text
ID : 3
Format : UTF-8
Codec ID : S_TEXT/UTF8
Codec ID/Info : UTF-8 Plain Text
Count of elements : 1224
Stream size : 48.1 KiB (0%)
Language : English

Bheeshma Parvam (2022) 1080p WEB-DL 10bit AV1 DDP 5.1-SMK (960 MB)

Format : Matroska
Format version : Version 4
File size : 963 MiB
Duration : 2 h 22 min
Overall bit rate : 946 kb/s
Movie name : Bheeshma Parvam 2022 1080p 10bit AV1 DDP5.1-SMK
Writing application : mkvmerge v61.0.0 (‘So’) 64-bit
Writing library : libebml v1.4.2 + libmatroska v1.6.4

Video
ID : 1
Format : AV1
Format/Info : AOMedia Video 1
Format profile : Main@L4.0
Codec ID : V_AV1
Duration : 2 h 22 min
Bit rate : 752 kb/s
Width : 1 920 pixels
Height : 816 pixels
Display aspect ratio : 2.35:1
Frame rate mode : Variable
Frame rate : 24.000 FPS
Color space : YUV
Chroma subsampling : 4:2:0
Bit depth : 10 bits
Bits/(Pixel*Frame) : 0.020
Stream size : 765 MiB (79%)
Color range : Limited
Color primaries : BT.709
Transfer characteristics : BT.709
Matrix coefficients : BT.709

Audio
ID : 2
Format : E-AC-3
Format/Info : Enhanced AC-3
Commercial name : Dolby Digital Plus
Codec ID : A_EAC3
Duration : 2 h 22 min
Bit rate mode : Constant
Bit rate : 192 kb/s
Channel(s) : 6 channels
Channel layout : L R C LFE Ls Rs
Sampling rate : 48.0 kHz
Frame rate : 31.250 FPS (1536 SPF)
Compression mode : Lossy
Stream size : 195 MiB (20%)
Language : Malay
Service kind : Complete Main

Text
ID : 3
Format : UTF-8
Codec ID : S_TEXT/UTF8
Stream size : 48.7 KiB (0%)
Language : English

Bheeshma Parvam (2022) 1080p DSNP WEB-DL HEVC 10bit DDP 5.1 PoOlLa (1.1 GB)

Format : Matroska
Format version : Version 4
File size : 1.13 GiB
Duration : 2 h 22 min
Overall bit rate : 1 136 kb/s
Writing application : mkvmerge v65.0.0 (‘Too Much’) 32-bit
Writing library : libebml v1.4.2 + libmatroska v1.6.4

Video
ID : 1
Format : HEVC
Format/Info : High Efficiency Video Coding
Format profile : Main 10@L4@High
Codec ID : V_MPEGH/ISO/HEVC
Duration : 2 h 22 min
Bit rate : 942 kb/s
Width : 1 920 pixels
Height : 808 pixels
Display aspect ratio : 2.40:1
Frame rate mode : Constant
Frame rate : 24.000 FPS
Color space : YUV
Chroma subsampling : 4:2:0
Bit depth : 10 bits
Bits/(Pixel*Frame) : 0.025
Stream size : 959 MiB (83%)
Color range : Limited

Audio
ID : 2
Format : E-AC-3
Format/Info : Enhanced AC-3
Commercial name : Dolby Digital Plus
Codec ID : A_EAC3
Duration : 2 h 22 min
Bit rate mode : Constant
Bit rate : 192 kb/s
Channel(s) : 6 channels
Channel layout : L R C LFE Ls Rs
Sampling rate : 48.0 kHz
Frame rate : 31.250 FPS (1536 SPF)
Bit depth : 32 bits
Compression mode : Lossy
Stream size : 195 MiB (17%)
Title : Malayalam
Language : Malayalam
Service kind : Complete Main

Text
ID : 3
Format : UTF-8
Codec ID : S_TEXT/UTF8
Codec ID/Info : UTF-8 Plain Text
Count of elements : 1224
Stream size : 48.1 KiB (0%)
Language : English

Bheeshma Parvam (2022) 1080p DSNP WEB-DL 10bit AV1 DD+ 5.1-SMK (735 MB)

Format : Matroska
Format version : Version 4
File size : 735 MiB
Duration : 2 h 22 min
Overall bit rate : 722 kb/s
Movie name : Bheeshma Parvam (2022) 1080p DSNP WEB-DL 10bit AV1 DD+ 5.1-SMK
Writing application : mkvmerge v65.0.0 (‘Too Much’) 32-bit
Writing library : libebml v1.4.2 + libmatroska v1.6.4

Video
ID : 1
Format : AV1
Format/Info : AOMedia Video 1
Format profile : Main@L4.0
Codec ID : V_AV1
Duration : 2 h 22 min
Bit rate : 528 kb/s
Width : 1 920 pixels
Height : 808 pixels
Display aspect ratio : 2.40:1
Frame rate mode : Variable
Frame rate : 24.000 FPS
Color space : YUV
Chroma subsampling : 4:2:0
Bit depth : 10 bits
Bits/(Pixel*Frame) : 0.014
Stream size : 537 MiB (73%)
Color range : Limited
Color primaries : BT.709
Transfer characteristics : BT.709
Matrix coefficients : BT.709

Audio
ID : 2
Format : E-AC-3
Format/Info : Enhanced AC-3
Commercial name : Dolby Digital Plus
Codec ID : A_EAC3
Duration : 2 h 22 min
Bit rate mode : Constant
Bit rate : 192 kb/s
Channel(s) : 6 channels
Channel layout : L R C LFE Ls Rs
Sampling rate : 48.0 kHz
Frame rate : 31.250 FPS (1536 SPF)
Compression mode : Lossy
Stream size : 195 MiB (27%)
Service kind : Complete Main

Text
ID : 3
Format : UTF-8
Codec ID : S_TEXT/UTF8
Codec ID/Info : UTF-8 Plain Text
Stream size : 48.1 KiB (0%)
Language : English

Bheeshma Parvam (2022) 1080p 10bit WEBRip DDP5.1 HEVC HSB (1.75 GB)

Source …: Bheeshma.Parvam.2022.1080p.DSNP.WEB.DL.H264.DDP5.1.192k-DDH
Runtime ……: 2h 22min
Video ……..: HEVC | 1920 x 804 | 10bit
Audio ……..: 5.1 DDP Malayalam
Subs …………: English

TG

Bheeshma Parvam (2022) 720p 10bit WEBRip 2CH HEVC HSB (850 MB)

Source …: Bheeshma.Parvam.2022.1080p.DSNP.WEB.DL.H264.DDP5.1.192k-DDH
Runtime ……: 2h 22min
Video ……..: HEVC | 1280 x 536 | 10bit
Audio ……..: 2CH HE-AAC Malayalam
Subs …………: English

TG

Telegram  Download Guide  Donate

Bheeshma Parvam (2022)
Bheeshma Parvam (2022)
Bheeshma Parvam (2022)
Bheeshma Parvam (2022)
Bheeshma Parvam (2022)
Bheeshma Parvam (2022)
Original title ഭീഷ്‍മ പര്‍വ്വം
IMDb Rating 8.7 7,783 votes
TMDb Rating 7 3 votes

Similar titles

Seoul Searching (2015)
Short Term 12 (2013)
The Last Boy Scout (1991)
Mumbai Police (2013)
Yuni (2021)
Serpico
Bicycle Thieves (1948)
The Red and the White (1967)
Son of Satyamurthy (2015)
Munthirivallikal Thalirkkumbol (2017)
Kadhavasheshan (2004)
Ghost (1990)