Video Sources 0 Views

  • Watch trailer
Bullet Train (2022)

Bullet Train (2022)

The end of the line is just the beginning.Jul. 03, 2022United States127 Min.R
Your rating: 0
6 1 vote

Synopsis

Unlucky assassin Ladybug is determined to do his job peacefully after one too many gigs gone off the rails. Fate, however, may have other plans, as Ladybug’s latest mission puts him on a collision course with lethal adversaries from around the globe—all with connected, yet conflicting, objectives—on the world’s fastest train.

Bullet Train (2022) 1080p MA WEB-DL AV1 HDR10 Opus 5.1 PoOlLa (1.2 GB)

Format : Matroska
Format version : Version 4
File size : 1.20 GiB
Duration : 2 h 6 min
Overall bit rate : 1 358 kb/s
Movie name : Bullet Train (2022) 1080p MA WEB-DL AV1 HDR10 Opus 5.1 PoOlLa
Writing application : mkvmerge v67.0.0 (‘Under Stars’) 64-bit
Writing library : libebml v1.4.2 + libmatroska v1.6.4

Video
ID : 1
Format : AV1
Format/Info : AOMedia Video 1
Format profile : Main@L4.0
Codec ID : V_AV1
Duration : 2 h 6 min
Bit rate : 1 098 kb/s
Width : 1 920 pixels
Height : 804 pixels
Display aspect ratio : 2.40:1
Frame rate mode : Constant
Frame rate : 23.976 (24000/1001) FPS
Color space : YUV
Chroma subsampling : 4:2:0
Bit depth : 10 bits
Bits/(Pixel*Frame) : 0.030
Stream size : 994 MiB (81%)
Default : No
Forced : No
Color range : Limited
Color primaries : BT.2020
Transfer characteristics : PQ
Matrix coefficients : BT.2020 non-constant
Mastering display color primaries : R: x=0.891280 y=0.419440, G: x=0.347340 y=0.904400, B: x=0.196600 y=0.078640, White point: x=0.409860 y=0.431220
Mastering display luminance : min: 0.0002 cd/m2, max: 25.6000 cd/m2
Maximum Content Light Level : 994 cd/m2
Maximum Frame-Average Light Level : 395 cd/m2

Audio
ID : 2
Format : Opus
Codec ID : A_OPUS
Duration : 2 h 6 min
Bit rate : 257 kb/s
Channel(s) : 6 channels
Channel layout : L R C Lb Rb LFE
Sampling rate : 48.0 kHz
Frame rate : 50.000 FPS (960 SPF)
Bit depth : 32 bits
Compression mode : Lossy
Delay relative to video : 87 ms
Stream size : 233 MiB (19%)
Language : English
Default : Yes
Forced : No

Text
ID : 3
Format : UTF-8
Codec ID : S_TEXT/UTF8
Codec ID/Info : UTF-8 Plain Text
Language : English

Bullet Train (2022) 1080p AMZN WEB-DL 10bit AV1 Opus 5.1 PoOlLa (1.1 GB)

ormat : Matroska
Format version : Version 4
File size : 1.10 GiB
Duration : 2 h 6 min
Overall bit rate : 1 248 kb/s
Movie name : Bullet Train (2022) 1080p AMZN WEB-DL 10bit AV1 Opus 5.1 PoOlLa
Writing application : mkvmerge v67.0.0 (‘Under Stars’) 64-bit
Writing library : libebml v1.4.2 + libmatroska v1.6.4

Video
ID : 1
Format : AV1
Format/Info : AOMedia Video 1
Format profile : Main@L4.0
Codec ID : V_AV1
Duration : 2 h 6 min
Bit rate : 1 037 kb/s
Width : 1 920 pixels
Height : 800 pixels
Display aspect ratio : 2.40:1
Frame rate mode : Constant
Frame rate : 23.976 (24000/1001) FPS
Color space : YUV
Chroma subsampling : 4:2:0
Bit depth : 10 bits
Bits/(Pixel*Frame) : 0.028
Stream size : 940 MiB (83%)
Default : Yes
Forced : No
Color range : Limited
Color primaries : BT.709
Transfer characteristics : BT.709
Matrix coefficients : BT.709

Audio
ID : 2
Format : Opus
Codec ID : A_OPUS
Duration : 2 h 6 min
Bit rate : 209 kb/s
Channel(s) : 6 channels
Channel layout : L R C Lb Rb LFE
Sampling rate : 48.0 kHz
Frame rate : 50.000 FPS (960 SPF)
Compression mode : Lossy
Stream size : 189 MiB (17%)
Language : English
Default : Yes
Forced : No

Text
ID : 3
Format : UTF-8
Codec ID : S_TEXT/UTF8
Codec ID/Info : UTF-8 Plain Text
Language : English

Telegram  Download Guide  Donate

Bullet Train (2022)
Bullet Train (2022)
Bullet Train (2022)
Bullet Train (2022)
Bullet Train (2022)
Bullet Train (2022)
Bullet Train (2022)
Bullet Train (2022)
Bullet Train (2022)
Bullet Train (2022)
Original title Bullet Train
IMDb Rating 7.5 85,331 votes
TMDb Rating 7.44 921 votes

Director

David Leitch
Director

Cast

Similar titles

No Mercy (2010)
Meppadiyan (2022)
City Lights (1931)
A Time to Kill (1996)
Fast Five (2011)
Sonic the Hedgehog 2 (2022)
I Care a Lot (2021)
Parava
The Prestige (2006)
The Brain Man (2013)
The Dark Knight (2008)
Jason Bourne (2016)