Video Sources 0 Views

  • Watch trailer
Cobra (2022)

Cobra (2022)

Aug. 31, 2022India163 Min.N/A
Your rating: 0
8 1 vote

Synopsis

A genius mathematician doubles up as a hit man, assassinating people opposing a ruthless corporate behemoth. While he manages to stay ahead of the Interpol and the psychotic head of the corporation, who are after him, can he evade the mysterious hacker who is keen to unmask him?

Cobra (2022) 1080p UHD TK WEB-DL AV1 10bit Opus 5.1 PoOlLa (1.35 GB)

Format : Matroska
Format version : Version 4
File size : 1.35 GiB
Duration : 3 h 1 min
Overall bit rate : 1 063 kb/s
Movie name : Cobra (2022) 1080p UHD TK WEB-DL AV1 10bit Opus 5.1 PoOlLa
Writing application : mkvmerge v67.0.0 (‘Under Stars’) 64-bit
Writing library : libebml v1.4.2 + libmatroska v1.6.4

Video
ID : 1
Format : AV1
Format/Info : AOMedia Video 1
Format profile : Main@L4.0
Codec ID : V_AV1
Duration : 3 h 1 min
Bit rate : 860 kb/s
Width : 1 920 pixels
Height : 804 pixels
Display aspect ratio : 2.40:1
Frame rate mode : Constant
Frame rate : 24.000 FPS
Color space : YUV
Chroma subsampling : 4:2:0
Bit depth : 10 bits
Bits/(Pixel*Frame) : 0.023
Stream size : 1.09 GiB (81%)
Default : No
Forced : No
Color range : Limited
Color primaries : BT.709
Transfer characteristics : BT.709
Matrix coefficients : BT.709

Audio
ID : 2
Format : Opus
Codec ID : A_OPUS
Duration : 3 h 1 min
Bit rate : 201 kb/s
Channel(s) : 6 channels
Channel layout : L R C Lb Rb LFE
Sampling rate : 48.0 kHz
Frame rate : 50.000 FPS (960 SPF)
Bit depth : 32 bits
Compression mode : Lossy
Stream size : 260 MiB (19%)
Language : Tamil
Default : Yes
Forced : No

Text
ID : 3
Format : UTF-8
Codec ID : S_TEXT/UTF8
Codec ID/Info : UTF-8 Plain Text
Language : English

Telegram  Download Guide  Donate

Cobra (2022)
Cobra (2022)
Cobra (2022)
Cobra (2022)
Cobra (2022)
Cobra (2022)
Cobra (2022)
Cobra (2022)
Cobra (2022)
Cobra (2022)
Original title கோப்ரா
IMDb Rating 6.5 7,114 votes
TMDb Rating 6.6 5 votes

Similar titles

Scarface
Vishudhan(2013)
The Eight Hundred (2020)
Jewel Thief (1967)
Oru Maravathoor Kanavu(1998)
Crimson Tide (1995)
Mr. Klein (1976)
The King (1995)
Mikhael
Angamaly Diaries
I(2015)
The Widow Couderc