Video Sources 0 Views

  • Watch trailer
Emergency Declaration (2022)

Emergency Declaration (2022)

Take your seat.Aug. 03, 2022South Korea140 Min.N/A
Your rating: 0
7 1 vote

Synopsis

While investigating a terroristic threat that goes viral online, Korean authorities discover that a suspect has recently boarded an international flight bound for the United States. When a healthy passenger on the same flight suddenly dies a gruesome death of unknown cause, panic erupts both in-flight and on the ground. With steadily decreasing fuel and international refusals to offer aid, the captain and crew will be forced to take unprecedented emergency measures in an attempt to save the lives of their passengers.

Emergency Declaration (2021) 1080p AMZN WEB-DL HEVC 10bit Opus 5.1 PoOlLa (1 GB)

Format : Matroska
Format version : Version 4
File size : 1 014 MiB
Duration : 2 h 20 min
Overall bit rate : 1 009 kb/s
Movie name : Emergency Declaration (2021) 1080p AMZN WEB-DL HEVC 10bit Opus 5.1 PoOlLa
Writing application : mkvmerge v67.0.0 (‘Under Stars’) 64-bit
Writing library : libebml v1.4.2 + libmatroska v1.6.4

Video
ID : 1
Format : HEVC
Format/Info : High Efficiency Video Coding
Format profile : Main 10@L4@High
Codec ID : V_MPEGH/ISO/HEVC
Duration : 2 h 20 min
Bit rate : 799 kb/s
Width : 1 920 pixels
Height : 816 pixels
Display aspect ratio : 2.35:1
Original display aspect ratio : 2.35:1
Frame rate mode : Constant
Frame rate : 24.000 FPS
Color space : YUV
Chroma subsampling : 4:2:0
Bit depth : 10 bits
Bits/(Pixel*Frame) : 0.021
Stream size : 803 MiB (79%)
Default : Yes
Forced : No
Color range : Limited

Audio
ID : 2
Format : Opus
Codec ID : A_OPUS
Duration : 2 h 20 min
Bit rate : 208 kb/s
Channel(s) : 6 channels
Channel layout : L R C Lb Rb LFE
Sampling rate : 48.0 kHz
Frame rate : 50.000 FPS (960 SPF)
Bit depth : 32 bits
Compression mode : Lossy
Stream size : 209 MiB (21%)
Language : Korean
Default : Yes
Forced : No

Text
ID : 3
Format : UTF-8
Codec ID : S_TEXT/UTF8
Codec ID/Info : UTF-8 Plain Text
Language : English

Telegram  Download Guide  Donate

Emergency Declaration (2022)
Emergency Declaration (2022)
Emergency Declaration (2022)
Emergency Declaration (2022)
Emergency Declaration (2022)
Emergency Declaration (2022)
Emergency Declaration (2022)
Emergency Declaration (2022)
Emergency Declaration (2022)
Emergency Declaration (2022)
Original title 비상선언
IMDb Rating 7 1,611 votes
TMDb Rating 6.913 23 votes

Director

Han Jae-rim
Director

Cast

Jeon Do-yeon isSook-hee
Sook-hee
Kim Nam-gil isHyun-soo
Hyun-soo
Yim Si-wan isJin-seok
Jin-seok
Kim So-jin isHee-jin
Hee-jin
Seol In-a isTae-eun
Tae-eun
Kim Bo-min isSoo-min
Soo-min
Moon Sook isDr. Han
Dr. Han

Similar titles

Milk (2008)
Enchanted April (1991)
Mr. & Mrs. Smith (2005)
Doob (2017)
Kolamavu Kokila (2018)
Red Rocket (2021)
Satantango
Don’t Look Up (2021)
Chandrolsavam (2005)
The Red and the White (1967)
Three Thousand Years of Longing (2022)
King Kong (2005)