Video Sources 0 Views

  • Watch trailer
Fall (2022)

Fall (2022)

Fear reaches new heights.Aug. 11, 2022United Kingdom107 Min.PG-13
Your rating: 0
6 1 vote

Synopsis

For best friends Becky and Hunter, life is all about conquering fears and pushing limits. But after they climb 2,000 feet to the top of a remote, abandoned radio tower, they find themselves stranded with no way down. Now Becky and Hunter’s expert climbing skills will be put to the ultimate test as they desperately fight to survive the elements, a lack of supplies, and vertigo-inducing heights

Fall (2022) 1080p WEB-DL 10bit AV1 Opus 5.1-SMK (685 MB)

Format : Matroska
Format version : Version 4
File size : 687 MiB
Duration : 1 h 42 min
Overall bit rate : 938 kb/s
Encoded date : UTC 2022-09-11 13:39:24
Writing application : mkvmerge v70.0.0 (‘Caught A Lite Sneeze’) 64-bit
Writing library : libebml v1.4.2 + libmatroska v1.6.4

Video
ID : 1
Format : AV1
Format/Info : AOMedia Video 1
Format profile : Main@L4.0
Codec ID : V_AV1
Duration : 1 h 42 min
Bit rate : 777 kb/s
Width : 1 916 pixels
Height : 992 pixels
Display aspect ratio : 1.931
Frame rate mode : Constant
Frame rate : 25.000 FPS
Color space : YUV
Chroma subsampling : 4:2:0
Bit depth : 10 bits
Bits/(Pixel*Frame) : 0.016
Stream size : 569 MiB (83%)
Language : Malayalam
Default : Yes
Forced : No
Color range : Limited

Audio
ID : 2
Format : Opus
Codec ID : A_OPUS
Duration : 1 h 42 min
Bit rate : 159 kb/s
Channel(s) : 6 channels
Channel layout : L R C Lb Rb LFE
Sampling rate : 48.0 kHz
Frame rate : 50.000 FPS (960 SPF)
Compression mode : Lossy
Stream size : 116 MiB (17%)
Title : Opus 5.1
Writing library : Lavc59.25.100 libopus
Language : English
Default : Yes
Forced : No

Text #1
ID : 3
Format : UTF-8
Codec ID : S_TEXT/UTF8
Codec ID/Info : UTF-8 Plain Text
Language : English

Text #2
ID : 4
Format : UTF-8
Codec ID : S_TEXT/UTF8
Codec ID/Info : UTF-8 Plain Text
Language : Malayalam

Telegram  Download Guide  Donate

Fall (2022)
Fall (2022)
Fall (2022)
Fall (2022)
Fall (2022)
Original title Fall
IMDb Rating 6.4 21,159 votes
TMDb Rating 7.406 714 votes

Similar titles

Run Lola Run (1998)
A Pure Formality (1994)
U Turn (2018)
Memories (2013)
7th Day (2014)
Cherry (2021)
7Aum Arivu
Adam Joan (2017)
Maragadha Naanayam (2017)
Twenty One Grams (2022)
Vakeel Saab (2021)
Puzhu (2022)