Video Sources 0 Views

  • Watch trailer
Hunt (2022)

Hunt (2022)

Two Rivals, A Hidden Truth.Aug. 10, 2022South Korea131 Min.N/A
Your rating: 0
9 1 vote

Synopsis

Agents of the Korean National Intelligence Service (KNIS), Pyung-ho at Int’l Dept. and Jung-do at Domestic Dept. are both independently hunting a North Korean mole within the agency. During this investigation, they come face to face with an unbearable truth and must deal with an unthinkable plot to assassinate the South Korean president.

Hunt (202) 1080p AMZN WEB-DL HEVC 10bit Opus 5.1 PoOlLa (925 MB)

Format : Matroska
Format version : Version 4
File size : 926 MiB
Duration : 2 h 5 min
Overall bit rate : 1 034 kb/s
Movie name : Hunt (202) 1080p AMZN WEB-DL HEVC 10bit Opus 5.1 PoOlLa
Encoded date : UTC 2022-10-03 10:15:42
Writing application : mkvmerge v67.0.0 (‘Under Stars’) 64-bit
Writing library : libebml v1.4.2 + libmatroska v1.6.4

Video
ID : 1
Format : HEVC
Format/Info : High Efficiency Video Coding
Format profile : Main 10@L4@High
Codec ID : V_MPEGH/ISO/HEVC
Duration : 2 h 5 min
Bit rate : 815 kb/s
Width : 1 920 pixels
Height : 816 pixels
Display aspect ratio : 2.35:1
Original display aspect ratio : 2.35:1
Frame rate mode : Constant
Frame rate : 24.000 FPS
Color space : YUV
Chroma subsampling : 4:2:0
Bit depth : 10 bits
Bits/(Pixel*Frame) : 0.022
Stream size : 730 MiB (79%)
Default : Yes
Forced : No
Color range : Limited

Audio
ID : 2
Format : Opus
Codec ID : A_OPUS
Duration : 2 h 5 min
Bit rate : 217 kb/s
Channel(s) : 6 channels
Channel layout : L R C Lb Rb LFE
Sampling rate : 48.0 kHz
Frame rate : 50.000 FPS (960 SPF)
Bit depth : 32 bits
Compression mode : Lossy
Stream size : 194 MiB (21%)
Language : Korean
Default : Yes
Forced : No

Text
ID : 3
Format : UTF-8
Codec ID : S_TEXT/UTF8
Codec ID/Info : UTF-8 Plain Text
Language : English

Telegram  Download Guide  Donate

Hunt (2022)
Hunt (2022)
Hunt (2022)
Hunt (2022)
Hunt (2022)
Hunt (2022)
Hunt (2022)
Hunt (2022)
Hunt (2022)
Hunt (2022)
Original title 헌트
IMDb Rating 7.2 486 votes
TMDb Rating 7.55 10 votes

Director

Lee Jung-jae
Director

Cast

Lee Jung-jae isPark Pyung-ho
Park Pyung-ho
Jung Woo-sung isKim Jung-do
Kim Jung-do
Jeon Hye-jin isBang Ju-kyung
Bang Ju-kyung
Heo Sung-tae isJang Chul-sung
Jang Chul-sung
Go Youn-jung isJo Yoo-jung
Jo Yoo-jung
Kim Jong-soo isDirector Ahn
Director Ahn
Jeong Man-sik isYang Bo-sung
Yang Bo-sung
Lim Hyung-kook isTransposer
Transposer
Jung Kyung-soon isChun Bo-san
Chun Bo-san
Jung Jae-sung isPyo Dong-ho
Pyo Dong-ho

Similar titles

Cherry (2021)
Angamaly Diaries
Godzilla: King of the Monsters (2019)
Rampant (2018)
Captain America: The Winter Soldier (2014)
Those Who Wish Me Dead (2021)
Bogan (2017)
The Unbearable Weight of Massive Talent (2022)
The Patriot (2000)
Kate (2021)
Munnariyippu (2014)
The Admiral: Roaring Currents (2014)