Video Sources 0 Views

  • Watch trailer
Investigation of a Citizen Above Suspicion (1970)

Investigation of a Citizen Above Suspicion (1970)

How will you kill me this time?Oct. 16, 1970Italy111 Min.R
Your rating: 0
6 1 vote

Synopsis

Rome, Italy. After committing a heinous crime, a senior police officer exposes evidence incriminating him because his moral commitment prevents him from circumventing the law and the social order it protects.

Investigation of a Citizen Above Suspicion (1970) 1080p Criterion BRrip HEVC 10bit AAC 1.0 PoOlLa (1.7 GB)

Format : Matroska
Format version : Version 4
File size : 1.70 GiB
Duration : 1 h 55 min
Overall bit rate : 2 105 kb/s
Movie name : Investigation of a Citizen Above Suspicion (1970) 1080p Criterion BRrip HEVC 10bit AAC 1.0 PoOlLa
Writing application : mkvmerge v67.0.0 (‘Under Stars’) 64-bit
Writing library : libebml v1.4.2 + libmatroska v1.6.4

Video
ID : 1
Format : HEVC
Format/Info : High Efficiency Video Coding
Format profile : Main 10@L4@High
Codec ID : V_MPEGH/ISO/HEVC
Duration : 1 h 55 min
Bit rate : 1 943 kb/s
Width : 1 920 pixels
Height : 1 040 pixels
Display aspect ratio : 1.85:1
Frame rate mode : Constant
Frame rate : 23.976 FPS
Color space : YUV
Chroma subsampling : 4:2:0
Bit depth : 10 bits
Bits/(Pixel*Frame) : 0.041
Stream size : 1.57 GiB (92%)
Default : Yes
Forced : No
Color range : Limited

Audio
ID : 2
Format : AAC LC
Format/Info : Advanced Audio Codec Low Complexity
Codec ID : A_AAC-2
Duration : 1 h 55 min
Bit rate : 160 kb/s
Channel(s) : 1 channel
Channel layout : C
Sampling rate : 48.0 kHz
Frame rate : 46.875 FPS (1024 SPF)
Compression mode : Lossy
Delay relative to video : -43 ms
Stream size : 132 MiB (8%)
Language : Italian
Default : Yes
Forced : No

Text
ID : 3
Format : UTF-8
Codec ID : S_TEXT/UTF8
Language : English

Investigation of a Citizen Above Suspicion (1970) 720p Criterion BRrip AV1 10bit Opus 1.0 PoOlLa (365 MB)

Format : Matroska
Format version : Version 4
File size : 367 MiB
Duration : 1 h 55 min
Overall bit rate : 443 kb/s
Movie name : Investigation of a Citizen Above Suspicion (1970) 720p Criterion BRrip AV1 10bit Opus 1.0 PoOlLa
Writing application : mkvmerge v67.0.0 (‘Under Stars’) 64-bit
Writing library : libebml v1.4.2 + libmatroska v1.6.4

Video
ID : 1
Format : AV1
Format/Info : AOMedia Video 1
Format profile : Main@L3.1
Codec ID : V_AV1
Duration : 1 h 55 min
Bit rate : 390 kb/s
Width : 1 280 pixels
Height : 694 pixels
Display aspect ratio : 1.85:1
Frame rate mode : Constant
Frame rate : 23.976 (24000/1001) FPS
Color space : YUV
Chroma subsampling : 4:2:0
Bit depth : 10 bits
Bits/(Pixel*Frame) : 0.018
Stream size : 322 MiB (88%)
Default : No
Forced : No
Color range : Limited
Color primaries : BT.709
Transfer characteristics : BT.709
Matrix coefficients : BT.709

Audio
ID : 2
Format : Opus
Codec ID : A_OPUS
Duration : 1 h 55 min
Bit rate : 51.5 kb/s
Channel(s) : 1 channel
Channel layout : C
Sampling rate : 48.0 kHz
Frame rate : 50.000 FPS (960 SPF)
Bit depth : 32 bits
Compression mode : Lossy
Stream size : 42.6 MiB (12%)
Language : Italian
Default : Yes
Forced : No

Text
ID : 3
Format : UTF-8
Codec ID : S_TEXT/UTF8
Codec ID/Info : UTF-8 Plain Text
Duration : 1 h 53 min
Language : English

Telegram  Download Guide  Donate

Investigation of a Citizen Above Suspicion (1970)
Investigation of a Citizen Above Suspicion (1970)
Investigation of a Citizen Above Suspicion (1970)
Investigation of a Citizen Above Suspicion (1970)
Investigation of a Citizen Above Suspicion (1970)
Original title Indagine su un cittadino al di sopra di ogni sospetto
IMDb Rating 8 11,512 votes
TMDb Rating 8.222 610 votes

Director

Elio Petri
Director

Cast

Florinda Bolkan isAugusta Terzi
Augusta Terzi
Gianni Santuccio isPolice Prefect
Police Prefect
Sergio Tramonti isAntonio Pace
Antonio Pace
Aldo Rendine isNicola Panunzio
Nicola Panunzio
Massimo Foschi isAugusta's Husband
Augusta's Husband
Aleka Paizi isGoverness
Governess

Similar titles

Oru Vadakkan Selfie (2015)
CBI 5: The Brain (2022)
Hustle (2022)
Sinkhole (2021)
The Matrix Resurrections (2021)
Gangubai Kathiawadi (2022)
Stillwater (2021)
Ivan’s Childhood
Soul (2020)
Vishwaroopam (2013)
Rockstar (2011)
Mosagallu (2021)