Video Sources 775 Views

  • Watch trailer
K.G.F: Chapter 1 (2018)

K.G.F: Chapter 1 (2018)

From The Streets Of Mumbai...To The Bloody Gold Mines Of KolarDec. 20, 2018India156 Min.N/A
Your rating: 0
9 3 votes

Synopsis

A period drama set in the 1970s, KGF follows the story of a fierce rebel who rises against the brutal oppression in Kolar Gold Fields and becomes the symbol of hope to legions of downtrodden people.

K.G.F Chapter 1 (2018) (Malayalam 1080p 10bit AMZN WEB-DL x265 HEVC E-AC3 5.1 640kbps) [MPEG7] (5.2GB)

Source …:

ormat : Matroska
Format version : Version 4
File size : 5.20 GiB
Duration : 2 h 34 min
Overall bit rate : 4 815 kb/s
Movie name : MPEG7 | K.G.F Chapter 1 (2018) (Malayalam 1080p 10bit AMZN WEB-DL x265 HEVC E-AC3 5.1 640kbps Multi Subs) [MPEG7] | www.cinemakottaga.top
Encoded date : UTC 2022-04-08 16:36:13
Writing application : Encoded by MPEG7 using shER v4.2
Writing library : libebml v1.4.2 + libmatroska v1.6.4 + mkvmerge v66.0.0 (‘Josie’)
Cover : Yes
Attachments : cover.jpg

Video
ID : 1
Format : HEVC
Format/Info : High Efficiency Video Coding
Format profile : Main 10@L4@High
Codec ID : V_MPEGH/ISO/HEVC
Duration : 2 h 34 min
Bit rate : 4 171 kb/s
Width : 1 920 pixels
Height : 808 pixels
Display aspect ratio : 2.40:1
Frame rate mode : Constant
Frame rate : 25.000 FPS
Color space : YUV
Chroma subsampling : 4:2:0
Bit depth : 10 bits
Bits/(Pixel*Frame) : 0.108
Stream size : 4.50 GiB (87%)
Title : Encoded by MPEG7 using shER v4.2
Default : Yes
Forced : No
Color range : Limited
Color primaries : BT.709
Transfer characteristics : BT.709
Matrix coefficients : BT.709

Audio
ID : 2
Format : E-AC-3
Format/Info : Enhanced AC-3
Commercial name : Dolby Digital Plus
Codec ID : A_EAC3
Duration : 2 h 34 min
Bit rate mode : Constant
Bit rate : 640 kb/s
Channel(s) : 6 channels
Channel layout : L R C LFE Ls Rs
Sampling rate : 48.0 kHz
Frame rate : 31.250 FPS (1536 SPF)
Compression mode : Lossy
Stream size : 707 MiB (13%)
Title : MPEG7 | www.cinemakottaga.top
Language : Malayalam
Service kind : Complete Main
Default : Yes
Forced : No

Text #1
ID : 3
Format : UTF-8
Codec ID : S_TEXT/UTF8
Codec ID/Info : UTF-8 Plain Text
Duration : 2 h 28 min
Bit rate : 57 b/s
Count of elements : 2047
Stream size : 62.4 KiB (0%)
Title : MPEG7 | www.cinemakottaga.top
Language : English
Default : Yes
Forced : No

Text #2
ID : 4
Format : UTF-8
Codec ID : S_TEXT/UTF8
Codec ID/Info : UTF-8 Plain Text
Duration : 2 h 28 min
Bit rate : 56 b/s
Count of elements : 2236
Stream size : 62.0 KiB (0%)
Title : MPEG7 | www.cinemakottaga.top
Language : English
Default : No
Forced : No

Text #3
ID : 5
Format : UTF-8
Codec ID : S_TEXT/UTF8
Codec ID/Info : UTF-8 Plain Text
Duration : 2 h 30 min
Bit rate : 67 b/s
Count of elements : 1562
Stream size : 74.9 KiB (0%)
Title : MPEG7 | www.cinemakottaga.top
Language : Arabic
Default : No
Forced : No

Text #4
ID : 6
Format : UTF-8
Codec ID : S_TEXT/UTF8
Codec ID/Info : UTF-8 Plain Text
Duration : 2 h 29 min
Bit rate : 54 b/s
Count of elements : 1932
Stream size : 59.4 KiB (0%)
Title : MPEG7 | www.cinemakottaga.top
Language : Indonesian
Default : No
Forced : No

Text #5
ID : 7
Format : UTF-8
Codec ID : S_TEXT/UTF8
Codec ID/Info : UTF-8 Plain Text
Duration : 2 h 31 min
Bit rate : 162 b/s
Count of elements : 2131
Stream size : 181 KiB (0%)
Title : MPEG7 | www.cinemakottaga.top
Language : Tamil
Default : No
Forced : No

Text #6
ID : 8
Format : UTF-8
Codec ID : S_TEXT/UTF8
Codec ID/Info : UTF-8 Plain Text
Duration : 2 h 28 min
Bit rate : 130 b/s
Count of elements : 1979
Stream size : 143 KiB (0%)
Title : MPEG7 | www.cinemakottaga.top
Language : Telugu
Default : No
Forced : No

Text #7
ID : 9
Format : UTF-8
Codec ID : S_TEXT/UTF8
Codec ID/Info : UTF-8 Plain Text
Duration : 2 h 33 min
Bit rate : 124 b/s
Count of elements : 1942
Stream size : 140 KiB (0%)
Title : MPEG7 | www.cinemakottaga.top
Language : Thai
Default : No
Forced : No

Text #8
ID : 10
Format : UTF-8
Codec ID : S_TEXT/UTF8
Codec ID/Info : UTF-8 Plain Text
Duration : 2 h 29 min
Bit rate : 49 b/s
Count of elements : 1671
Stream size : 53.6 KiB (0%)
Title : MPEG7 | www.cinemakottaga.top
Language : Chinese

K G F Chapter 1 (2018) Malayalam 1080p 10bit AMZN WEB-DL 6CH HEVC MPEG7 (1.5GB)

Source …:

Format : Matroska
Format version : Version 4
File size : 1.45 GiB
Duration : 2 h 34 min
Overall bit rate : 1 345 kb/s
Movie name : MPEG7 | K G F Chapter 1 (2018) Malayalam 1080p 10bit AMZN WEB-DL 6CH HEVC MPEG7 | www.cinemakottaga.top
Encoded date : UTC 2022-04-08 16:34:44
Writing application : Encoded by MPEG7 using shER v4.2
Writing library : libebml v1.4.2 + libmatroska v1.6.4 + mkvmerge v66.0.0 (‘Josie’)
Cover : Yes
Attachments : cover.jpg

Video
ID : 1
Format : HEVC
Format/Info : High Efficiency Video Coding
Format profile : Main 10@L4@High
Codec ID : V_MPEGH/ISO/HEVC
Duration : 2 h 34 min
Bit rate : 1 132 kb/s
Width : 1 920 pixels
Height : 808 pixels
Display aspect ratio : 2.40:1
Frame rate mode : Constant
Frame rate : 25.000 FPS
Color space : YUV
Chroma subsampling : 4:2:0
Bit depth : 10 bits
Bits/(Pixel*Frame) : 0.029
Stream size : 1.22 GiB (84%)
Title : Encoded by MPEG7 using shER v4.2
Default : Yes
Forced : No
Color range : Limited
Color primaries : BT.709
Transfer characteristics : BT.709
Matrix coefficients : BT.709

Audio
ID : 2
Format : AAC LC SBR
Format/Info : Advanced Audio Codec Low Complexity with Spectral Band Replication
Commercial name : HE-AAC
Format settings : NBC
Codec ID : A_AAC-5
Duration : 2 h 34 min
Bit rate : 210 kb/s
Channel(s) : 6 channels
Channel layout : C L R Ls Rs LFE
Sampling rate : 48.0 kHz
Frame rate : 23.438 FPS (2048 SPF)
Compression mode : Lossy
Stream size : 232 MiB (16%)
Title : MPEG7 | www.cinemakottaga.top
Language : Malayalam
Default : Yes
Forced : No

Text #1
ID : 3
Format : UTF-8
Codec ID : S_TEXT/UTF8
Codec ID/Info : UTF-8 Plain Text
Duration : 2 h 28 min
Bit rate : 57 b/s
Count of elements : 2047
Stream size : 62.4 KiB (0%)
Title : MPEG7 | www.cinemakottaga.top
Language : English

K G F Chapter 1 (2018) Malayalam 720p 10bit AMZN WEB-DL 2CH HEVC – MPEG7 (850MB)

Source …:

Format : Matroska
Format version : Version 4
File size : 847 MiB
Duration : 2 h 34 min
Overall bit rate : 766 kb/s
Movie name : MPEG7 | K G F Chapter 1 (2018) Malayalam 720p 10bit AMZN WEB-DL x265 HEVC AAC 2.0 – MPEG7 | www.cinemakottaga.ml
Encoded date : UTC 2022-04-08 16:25:50
Writing application : Encoded by MPEG7 using shER v4.2
Writing library : libebml v1.4.2 + libmatroska v1.6.4 + mkvmerge v66.0.0 (‘Josie’)
Cover : Yes
Attachments : cover.jpg

Video
ID : 1
Format : HEVC
Format/Info : High Efficiency Video Coding
Format profile : Main 10@L4@High
Codec ID : V_MPEGH/ISO/HEVC
Duration : 2 h 34 min
Bit rate : 691 kb/s
Width : 1 280 pixels
Height : 544 pixels
Display aspect ratio : 2.35:1
Frame rate mode : Constant
Frame rate : 25.000 FPS
Color space : YUV
Chroma subsampling : 4:2:0
Bit depth : 10 bits
Bits/(Pixel*Frame) : 0.040
Stream size : 763 MiB (90%)
Title : Encoded by MPEG7 using shER v4.2
Default : Yes
Forced : No
Color range : Limited
Color primaries : BT.709
Transfer characteristics : BT.709
Matrix coefficients : BT.709

Audio
ID : 2
Format : AAC LC SBR
Format/Info : Advanced Audio Codec Low Complexity with Spectral Band Replication
Commercial name : HE-AAC
Format settings : Explicit
Codec ID : A_AAC-2
Duration : 2 h 34 min
Bit rate : 72.0 kb/s
Channel(s) : 2 channels
Channel layout : L R
Sampling rate : 48.0 kHz
Frame rate : 23.438 FPS (2048 SPF)
Compression mode : Lossy
Stream size : 79.6 MiB (9%)
Title : t.me/mpeg7encodes
Language : Malayalam
Default : Yes
Forced : No

Text #1
ID : 3
Format : UTF-8
Codec ID : S_TEXT/UTF8
Codec ID/Info : UTF-8 Plain Text
Duration : 2 h 28 min
Bit rate : 57 b/s
Count of elements : 2047
Stream size : 62.4 KiB (0%)
Title : t.me/mpeg7encodes
Language : English

K.G.F (2018) Mal 1080p AMZN WEB-DL 10bit AV1 DDP 5.1-SMK (1.15 GB)

Format : Matroska
Format version : Version 4
File size : 1.17 GiB
Duration : 2 h 34 min
Overall bit rate : 1 082 kb/s
Movie name : K.G.F-Ch.1.2018.Mal.1080p.10bit.AV1.DDP5.1-SMK
Writing application : mkvmerge v61.0.0 (‘So’) 64-bit
Writing library : libebml v1.4.2 + libmatroska v1.6.4

Video
ID : 1
Format : AV1
Format/Info : AOMedia Video 1
Format profile : Main@L4.0
Codec ID : V_AV1
Duration : 2 h 34 min
Bit rate : 888 kb/s
Width : 1 920 pixels
Height : 816 pixels
Display aspect ratio : 2.35:1
Frame rate mode : Constant
Frame rate : 25.000 FPS
Color space : YUV
Chroma subsampling : 4:2:0
Bit depth : 10 bits
Bits/(Pixel*Frame) : 0.023
Stream size : 982 MiB (82%)
Color range : Limited
Color primaries : BT.709
Transfer characteristics : BT.709
Matrix coefficients : BT.709

Audio
ID : 2
Format : E-AC-3
Format/Info : Enhanced AC-3
Commercial name : Dolby Digital Plus
Codec ID : A_EAC3
Duration : 2 h 34 min
Bit rate mode : Constant
Bit rate : 192 kb/s
Channel(s) : 6 channels
Channel layout : L R C LFE Ls Rs
Sampling rate : 48.0 kHz
Frame rate : 31.250 FPS (1536 SPF)
Compression mode : Lossy
Stream size : 212 MiB (18%)
Language : Malay
Service kind : Complete Main

Text #1
ID : 3
Format : UTF-8
Codec ID : S_TEXT/UTF8
Codec ID/Info : UTF-8 Plain Text
Duration : 2 h 28 min
Bit rate : 57 b/s
Count of elements : 2047
Stream size : 62.4 KiB (0%)
Language : English

Text #2
ID : 4
Format : UTF-8
Codec ID : S_TEXT/UTF8
Codec ID/Info : UTF-8 Plain Text
Stream size : 62.0 KiB (0%)
Language : English

K.G.F Chapter 1 (2018) Kannada 1080p AMZN WEB-DL HEVC 10bit AAC 5.1 PoOlLa (2.25 GB)

Format : Matroska
Format version : Version 4
File size : 2.28 GiB
Duration : 2 h 34 min
Overall bit rate : 2 112 kb/s
Movie name : K.G.F Chapter 1 (2018) Kannada 1080p AMZN WEB-DL HEVC AAC 5.1 PoOlLa
Writing application : mkvmerge v65.0.0 (‘Too Much’) 32-bit
Writing library : libebml v1.4.2 + libmatroska v1.6.4

Video
ID : 1
Format : HEVC
Format/Info : High Efficiency Video Coding
Format profile : Main 10@L4@High
Codec ID : V_MPEGH/ISO/HEVC
Duration : 2 h 34 min
Bit rate : 1 661 kb/s
Width : 1 920 pixels
Height : 816 pixels
Display aspect ratio : 2.35:1
Original display aspect ratio : 2.35:1
Frame rate mode : Constant
Frame rate : 25.000 FPS
Color space : YUV
Chroma subsampling : 4:2:0
Bit depth : 10 bits
Bits/(Pixel*Frame) : 0.042
Stream size : 1.79 GiB (79%)
Color range : Limited
Color primaries : BT.709
Transfer characteristics : BT.709
Matrix coefficients : BT.709

Audio
ID : 2
Format : AAC LC
Format/Info : Advanced Audio Codec Low Complexity
Codec ID : A_AAC-2
Duration : 2 h 34 min
Bit rate : 448 kb/s
Channel(s) : 6 channels
Channel layout : C L R Ls Rs LFE
Sampling rate : 48.0 kHz
Frame rate : 46.875 FPS (1024 SPF)
Compression mode : Lossy
Stream size : 495 MiB (21%)
Language : Kannada

Text
ID : 3
Format : UTF-8
Codec ID : S_TEXT/UTF8
Stream size : 62.5 KiB (0%)
Language : English

K.G.F Chapter 1 (2018) Kannada 1080p AMZN WEB-DL HEVC Opus 5.1 PoOlLa (1.3 GB)

Format : Matroska
Format version : Version 4
File size : 1.32 GiB
Duration : 2 h 34 min
Overall bit rate : 1 219 kb/s
Movie name : K.G.F Chapter 1 (2018) Kannada 1080p AMZN WEB-DL HEVC Opus 5.1 PoOlLa
Writing application : mkvmerge v65.0.0 (‘Too Much’) 32-bit
Writing library : libebml v1.4.2 + libmatroska v1.6.4

Video
ID : 1
Format : HEVC
Format/Info : High Efficiency Video Coding
Format profile : Main 10@L4@Main
Codec ID : V_MPEGH/ISO/HEVC
Duration : 2 h 34 min
Bit rate : 975 kb/s
Width : 1 920 pixels
Height : 816 pixels
Display aspect ratio : 2.35:1
Frame rate mode : Constant
Frame rate : 25.000 FPS
Color space : YUV
Chroma subsampling : 4:2:0
Bit depth : 10 bits
Bits/(Pixel*Frame) : 0.025
Stream size : 1.05 GiB (80%)
Writing library : x265 3.0_RC+13-ae085e5cd8a2:[Windows][GCC 6.3.0][64 bit] 10bit
Color range : Limited
Color primaries : BT.709
Matrix coefficients : BT.709

Audio
ID : 2
Format : Opus
Codec ID : A_OPUS
Duration : 2 h 34 min
Bit rate : 242 kb/s
Channel(s) : 6 channels
Channel layout : L R C Lb Rb LFE
Sampling rate : 48.0 kHz
Frame rate : 50.000 FPS (960 SPF)
Compression mode : Lossy
Delay relative to video : -43 ms
Stream size : 268 MiB (20%)
Writing library : opusenc from opus-tools 0.2-3-gf5f571b

Text
ID : 3
Format : UTF-8
Codec ID : S_TEXT/UTF8
Stream size : 62.5 KiB (0%)
Title : English (SDH)

K.G.F Chapter 1 (2018) Kannada 720p AMZN WEB-DL HEVC Opus 2.0 PoOlLa (830 MB)

Format : Matroska
Format version : Version 4
File size : 832 MiB
Duration : 2 h 34 min
Overall bit rate : 753 kb/s
Movie name : K.G.F Chapter 1 (2018) Kannada 720p AMZN WEB-DL HEVC Opus 2.0 PoOlLa
Writing application : mkvmerge v65.0.0 (‘Too Much’) 32-bit
Writing library : libebml v1.4.2 + libmatroska v1.6.4

Video
ID : 1
Format : HEVC
Format/Info : High Efficiency Video Coding
Format profile : Main 10@L3.1@Main
Codec ID : V_MPEGH/ISO/HEVC
Duration : 2 h 34 min
Bit rate : 670 kb/s
Width : 1 280 pixels
Height : 544 pixels
Display aspect ratio : 2.35:1
Frame rate mode : Constant
Frame rate : 25.000 FPS
Color space : YUV
Chroma subsampling : 4:2:0
Bit depth : 10 bits
Bits/(Pixel*Frame) : 0.038
Stream size : 740 MiB (89%)
Writing library : x265 3.0_RC+13-ae085e5cd8a2:[Windows][GCC 6.3.0][64 bit] 10bit
Default : Yes
Forced : No
Color range : Limited
Color primaries : BT.709
Matrix coefficients : BT.709

Audio
ID : 2
Format : Opus
Codec ID : A_OPUS
Duration : 2 h 34 min
Bit rate : 80.4 kb/s
Channel(s) : 2 channels
Channel layout : L R
Sampling rate : 48.0 kHz
Frame rate : 50.000 FPS (960 SPF)
Bit depth : 32 bits
Compression mode : Lossy
Delay relative to video : -14 ms
Stream size : 88.9 MiB (11%)
Title : Kannada
Language : Kannada

Text
ID : 3
Format : UTF-8
Codec ID : S_TEXT/UTF8
Stream size : 62.5 KiB (0%)
Language : English

K.G.F Chapter 1 (2018) Tamil 1080p AMZN WEB-DL HEVC AAC 5.1 PoOlLa (1.4 GB)

Format : Matroska
Format version : Version 4
File size : 1.48 GiB
Duration : 2 h 34 min
Overall bit rate : 1 372 kb/s
Movie name : Encoded By PoOlLa
Writing application : mkvmerge v39.0.0 (‘In The Waiting Line’) 64-bit
Writing library : libebml v1.3.9 + libmatroska v1.5.2

Video
ID : 1
Format : HEVC
Format/Info : High Efficiency Video Coding
Format profile : Main 10@L4@Main
Codec ID : V_MPEGH/ISO/HEVC
Duration : 2 h 34 min
Bit rate : 1 053 kb/s
Width : 1 920 pixels
Height : 816 pixels
Display aspect ratio : 2.35:1
Frame rate mode : Constant
Frame rate : 25.000 FPS
Color space : YUV
Chroma subsampling : 4:2:0
Bit depth : 10 bits
Bits/(Pixel*Frame) : 0.027
Stream size : 1.14 GiB (77%)
Writing library : x265 3.2+22-a8a2c4c37267:[Windows][MSVC 1924][64 bit] 10bit
Default : Yes
Forced : No
Color range : Limited
Color primaries : BT.709
Transfer characteristics : BT.709
Matrix coefficients : BT.709

Audio
ID : 2
Format : AAC LC
Format/Info : Advanced Audio Codec Low Complexity
Codec ID : A_AAC-2
Duration : 2 h 34 min
Bit rate : 316 kb/s
Channel(s) : 6 channels
Channel layout : C L R Ls Rs LFE
Sampling rate : 48.0 kHz
Frame rate : 46.875 FPS (1024 SPF)
Compression mode : Lossy
Stream size : 350 MiB (23%)
Language : Tamil

Text
ID : 3
Format : UTF-8
Codec ID : S_TEXT/UTF8
Codec ID/Info : UTF-8 Plain Text
Stream size : 62.5 KiB (0%)
Language : English

Telegram  Download Guide  Donate

K.G.F: Chapter 1 (2018)
K.G.F: Chapter 1 (2018)
K.G.F: Chapter 1 (2018)
K.G.F: Chapter 1 (2018)
K.G.F: Chapter 1 (2018)
K.G.F: Chapter 1 (2018)
K.G.F: Chapter 1 (2018)
K.G.F: Chapter 1 (2018)
K.G.F: Chapter 1 (2018)
Original title ಕೆಜಿಎಫ್ ಅಧ್ಯಾಯ ೧
IMDb Rating 8.2 37,047 votes
TMDb Rating 7.5 76 votes

Director

Cast

Yash isRaja Krishnappa Bairya
Raja Krishnappa Bairya "Rocky"
Achyuth Kumar isGuru Pandyan
Guru Pandyan
Malavika Avinash isDeepa Hegde
Deepa Hegde
Anant Nag isAnand Ingalagi
Anand Ingalagi
Tamanna Bhatia isMilky (South Indian version)
Milky (South Indian version)
Mouni Roy isLucy (Hindi version)
Lucy (Hindi version)
Archana Jois isSaraswathi / Shanthamma
Saraswathi / Shanthamma

Similar titles

Pada (2022)
Hear Me (2009)
Reprise (2006)
Terminator 2: Judgment Day (1991)
The Outsider
Summerland (2020)
Hera Pheri
3 (2012)
The Aura (2005)
The Breakfast Club (1985)
A Good Rain Knows (2009)
Free Guy (2021)