Video Sources 0 Views

  • Watch trailer
K.G.F: Chapter 2 (2022)

K.G.F: Chapter 2 (2022)

Apr. 14, 2022India168 Min.N/A
Your rating: 0
8 6 votes

Synopsis

The blood-soaked land of Kolar Gold Fields (KGF) has a new overlord now – Rocky, whose name strikes fear in the heart of his foes. His allies look up to Rocky as their Savior, the government sees him as a threat to law and order; enemies are clamoring for revenge and conspiring for his downfall. Bloodier battles and darker days await as Rocky continues on his quest for unchallenged supremacy.

K.G.F Chapter 2 (2022) Kannada 1080p AMZN WEB-DL AV1 10bit Opus 5.1 PoOlLa (1.65 GB)

Format : Matroska
Format version : Version 4
File size : 1.67 GiB
Duration : 2 h 45 min
Overall bit rate : 1 438 kb/s
Encoded date : UTC 2022-06-14 02:18:14
Writing application : mkvmerge v65.0.0 (‘Too Much’) 32-bit
Writing library : libebml v1.4.2 + libmatroska v1.6.4

Video
ID : 1
Format : AV1
Format/Info : AOMedia Video 1
Format profile : Main@L4.0
Codec ID : V_AV1
Duration : 2 h 45 min
Bit rate : 1 206 kb/s
Width : 1 920 pixels
Height : 816 pixels
Display aspect ratio : 2.35:1
Frame rate mode : Constant
Frame rate : 24.000 FPS
Color space : YUV
Chroma subsampling : 4:2:0
Bit depth : 10 bits
Bits/(Pixel*Frame) : 0.032
Stream size : 1.40 GiB (84%)
Default : Yes
Forced : No
Color range : Limited
Color primaries : BT.709
Transfer characteristics : BT.709
Matrix coefficients : BT.709

Audio
ID : 2
Format : Opus
Codec ID : A_OPUS
Duration : 2 h 45 min
Bit rate : 230 kb/s
Channel(s) : 6 channels
Channel layout : L R C Lb Rb LFE
Sampling rate : 48.0 kHz
Frame rate : 50.000 FPS (960 SPF)
Bit depth : 32 bits
Compression mode : Lossy
Delay relative to video : -7 ms
Stream size : 273 MiB (16%)
Language : Kannada
Default : No
Forced : No

Text
ID : 3
Format : UTF-8
Codec ID : S_TEXT/UTF8
Codec ID/Info : UTF-8 Plain Text
Stream size : 59.5 KiB (0%)
Language : English

K.G.F Chapter 2 (2022) Kannada 1080p AMZN WEB-DL HEVC 10bit AAC 5.1 PoOlLa (1.9 GB)

Format : Matroska
Format version : Version 4
File size : 1.90 GiB
Duration : 2 h 45 min
Overall bit rate : 1 642 kb/s
Movie name : K.G.F Chapter 2 (2022) Kannada 1080p AMZN WEB-DL HEVC 10bit AAC 5.1 PoOlLa
Encoded date : UTC 2022-05-16 15:11:22
Writing application : mkvmerge v65.0.0 (‘Too Much’) 32-bit
Writing library : libebml v1.4.2 + libmatroska v1.6.4

Video
ID : 1
Format : HEVC
Format/Info : High Efficiency Video Coding
Format profile : Main 10@L4@High
Codec ID : V_MPEGH/ISO/HEVC
Duration : 2 h 45 min
Bit rate : 1 359 kb/s
Width : 1 920 pixels
Height : 816 pixels
Display aspect ratio : 2.35:1
Original display aspect ratio : 2.35:1
Frame rate mode : Constant
Frame rate : 24.000 FPS
Color space : YUV
Chroma subsampling : 4:2:0
Bit depth : 10 bits
Bits/(Pixel*Frame) : 0.036
Stream size : 1.58 GiB (83%)
Default : Yes
Forced : No
Color range : Limited
Color primaries : BT.709
Transfer characteristics : BT.709
Matrix coefficients : BT.709

Audio
ID : 2
Format : AAC LC
Format/Info : Advanced Audio Codec Low Complexity
Codec ID : A_AAC-2
Duration : 2 h 45 min
Bit rate : 280 kb/s
Channel(s) : 6 channels
Channel layout : C L R Ls Rs LFE
Sampling rate : 48.0 kHz
Frame rate : 46.875 FPS (1024 SPF)
Compression mode : Lossy
Stream size : 332 MiB (17%)
Language : Kannada
Default : Yes
Forced : No

Text
ID : 3
Format : UTF-8
Codec ID : S_TEXT/UTF8
Stream size : 59.5 KiB (0%)
Language : English

K.G.F Chapter 2 (2022) Kannada 720p AMZN WEB-DL AV1 10bit Opus 2.0 PoOlLa (775 MB)

Format : Matroska
Format version : Version 4
File size : 777 MiB
Duration : 2 h 45 min
Overall bit rate : 654 kb/s
Encoded date : UTC 2022-05-16 15:08:56
Writing application : mkvmerge v65.0.0 (‘Too Much’) 32-bit
Writing library : libebml v1.4.2 + libmatroska v1.6.4

Video
ID : 1
Format : AV1
Format/Info : AOMedia Video 1
Format profile : Main@L3.1
Codec ID : V_AV1
Duration : 2 h 45 min
Bit rate : 588 kb/s
Width : 1 280 pixels
Height : 544 pixels
Display aspect ratio : 2.35:1
Frame rate mode : Constant
Frame rate : 24.000 FPS
Color space : YUV
Chroma subsampling : 4:2:0
Bit depth : 10 bits
Bits/(Pixel*Frame) : 0.035
Stream size : 698 MiB (90%)
Default : No
Forced : No
Color range : Limited
Color primaries : BT.709
Transfer characteristics : BT.709
Matrix coefficients : BT.709

Audio
ID : 2
Format : Opus
Codec ID : A_OPUS
Duration : 2 h 45 min
Bit rate : 64.4 kb/s
Channel(s) : 2 channels
Channel layout : L R
Sampling rate : 48.0 kHz
Frame rate : 50.000 FPS (960 SPF)
Bit depth : 32 bits
Compression mode : Lossy
Delay relative to video : -7 ms
Stream size : 76.4 MiB (10%)
Title : Kannada (India)
Language : Kannada
Default : No
Forced : No

Text
ID : 3
Format : UTF-8
Codec ID : S_TEXT/UTF8
Codec ID/Info : UTF-8 Plain Text
Stream size : 59.5 KiB (0%)
Title : English [SDH]

K.G.F Chapter 2 (2022) Malayalam 1080p AMZN WEB-DL HEVC 10bit AAC 5.1 PoOlLa (1.9 GB)

Format : Matroska
Format version : Version 4
File size : 1.90 GiB
Duration : 2 h 45 min
Overall bit rate : 1 642 kb/s
Movie name : K.G.F Chapter 2 (2022) Malayalam 1080p AMZN WEB-DL HEVC 10bit AAC 5.1 PoOlLa
Encoded date : UTC 2022-05-16 15:13:34
Writing application : mkvmerge v65.0.0 (‘Too Much’) 32-bit
Writing library : libebml v1.4.2 + libmatroska v1.6.4

Video
ID : 1
Format : HEVC
Format/Info : High Efficiency Video Coding
Format profile : Main 10@L4@High
Codec ID : V_MPEGH/ISO/HEVC
Duration : 2 h 45 min
Bit rate : 1 359 kb/s
Width : 1 920 pixels
Height : 816 pixels
Display aspect ratio : 2.35:1
Original display aspect ratio : 2.35:1
Frame rate mode : Constant
Frame rate : 24.000 FPS
Color space : YUV
Chroma subsampling : 4:2:0
Bit depth : 10 bits
Bits/(Pixel*Frame) : 0.036
Stream size : 1.58 GiB (83%)
Default : Yes
Forced : No
Color range : Limited
Color primaries : BT.709
Transfer characteristics : BT.709
Matrix coefficients : BT.709

Audio
ID : 2
Format : AAC LC
Format/Info : Advanced Audio Codec Low Complexity
Codec ID : A_AAC-2
Duration : 2 h 45 min
Bit rate : 280 kb/s
Channel(s) : 6 channels
Channel layout : C L R Ls Rs LFE
Sampling rate : 48.0 kHz
Frame rate : 46.875 FPS (1024 SPF)
Compression mode : Lossy
Stream size : 332 MiB (17%)
Language : Malayalam
Default : Yes
Forced : No

Text
ID : 3
Format : UTF-8
Codec ID : S_TEXT/UTF8
Stream size : 59.5 KiB (0%)
Default : Yes

K.G.F Chapter 2 (2022) Malayalam 720p AMZN WEB-DL AV1 10bit Opus 2.0 PoOlLa (775 MB)

Format : Matroska
Format version : Version 4
File size : 777 MiB
Duration : 2 h 45 min
Overall bit rate : 654 kb/s
Encoded date : UTC 2022-05-16 15:09:11
Writing application : mkvmerge v65.0.0 (‘Too Much’) 32-bit
Writing library : libebml v1.4.2 + libmatroska v1.6.4

Video
ID : 1
Format : AV1
Format/Info : AOMedia Video 1
Format profile : Main@L3.1
Codec ID : V_AV1
Duration : 2 h 45 min
Bit rate : 588 kb/s
Width : 1 280 pixels
Height : 544 pixels
Display aspect ratio : 2.35:1
Frame rate mode : Constant
Frame rate : 24.000 FPS
Color space : YUV
Chroma subsampling : 4:2:0
Bit depth : 10 bits
Bits/(Pixel*Frame) : 0.035
Stream size : 698 MiB (90%)
Default : No
Forced : No
Color range : Limited
Color primaries : BT.709
Transfer characteristics : BT.709
Matrix coefficients : BT.709

Audio
ID : 2
Format : Opus
Codec ID : A_OPUS
Duration : 2 h 45 min
Bit rate : 64.4 kb/s
Channel(s) : 2 channels
Channel layout : L R
Sampling rate : 48.0 kHz
Frame rate : 50.000 FPS (960 SPF)
Bit depth : 32 bits
Compression mode : Lossy
Delay relative to video : -7 ms
Stream size : 76.4 MiB (10%)
Title : Malayalam
Language : Malayalam
Default : No
Forced : No

Text
ID : 3
Format : UTF-8
Codec ID : S_TEXT/UTF8
Codec ID/Info : UTF-8 Plain Text
Title : English [SDH]

K.G.F Chapter 2 (2022) Tamil 1080p AMZN WEB-DL HEVC 10bit AAC 5.1 PoOlLa (1.9 GB)

Format : Matroska
Format version : Version 4
File size : 1.90 GiB
Duration : 2 h 45 min
Overall bit rate : 1 642 kb/s
Movie name : K.G.F Chapter 2 (2022) Tamil 1080p AMZN WEB-DL HEVC 10bit AAC 5.1 PoOlLa
Encoded date : UTC 2022-05-16 15:11:58
Writing application : mkvmerge v65.0.0 (‘Too Much’) 32-bit
Writing library : libebml v1.4.2 + libmatroska v1.6.4

Video
ID : 1
Format : HEVC
Format/Info : High Efficiency Video Coding
Format profile : Main 10@L4@High
Codec ID : V_MPEGH/ISO/HEVC
Duration : 2 h 45 min
Bit rate : 1 359 kb/s
Width : 1 920 pixels
Height : 816 pixels
Display aspect ratio : 2.35:1
Original display aspect ratio : 2.35:1
Frame rate mode : Constant
Frame rate : 24.000 FPS
Color space : YUV
Chroma subsampling : 4:2:0
Bit depth : 10 bits
Bits/(Pixel*Frame) : 0.036
Stream size : 1.58 GiB (83%)
Default : Yes
Forced : No
Color range : Limited
Color primaries : BT.709
Transfer characteristics : BT.709
Matrix coefficients : BT.709

Audio
ID : 2
Format : AAC LC
Format/Info : Advanced Audio Codec Low Complexity
Codec ID : A_AAC-2
Duration : 2 h 45 min
Bit rate : 280 kb/s
Channel(s) : 6 channels
Channel layout : C L R Ls Rs LFE
Sampling rate : 48.0 kHz
Frame rate : 46.875 FPS (1024 SPF)
Compression mode : Lossy
Stream size : 332 MiB (17%)
Language : Tamil
Default : Yes
Forced : No

Text
ID : 3
Format : UTF-8
Codec ID : S_TEXT/UTF8
Codec ID/Info : UTF-8 Plain Text
Stream size : 59.5 KiB (0%)
Language : English

K.G.F Chapter 2 (2022) Tamil 720p AMZN WEB-DL AV1 10bit Opus 2.0 PoOlLa (775 MB)

Format : Matroska
Format version : Version 4
File size : 777 MiB
Duration : 2 h 45 min
Overall bit rate : 654 kb/s
Encoded date : UTC 2022-05-16 15:09:35
Writing application : mkvmerge v65.0.0 (‘Too Much’) 32-bit
Writing library : libebml v1.4.2 + libmatroska v1.6.4

Video
ID : 1
Format : AV1
Format/Info : AOMedia Video 1
Format profile : Main@L3.1
Codec ID : V_AV1
Duration : 2 h 45 min
Bit rate : 588 kb/s
Width : 1 280 pixels
Height : 544 pixels
Display aspect ratio : 2.35:1
Frame rate mode : Constant
Frame rate : 24.000 FPS
Color space : YUV
Chroma subsampling : 4:2:0
Bit depth : 10 bits
Bits/(Pixel*Frame) : 0.035
Stream size : 698 MiB (90%)
Default : No
Forced : No
Color range : Limited
Color primaries : BT.709
Transfer characteristics : BT.709
Matrix coefficients : BT.709

Audio
ID : 2
Format : Opus
Codec ID : A_OPUS
Duration : 2 h 45 min
Bit rate : 64.4 kb/s
Channel(s) : 2 channels
Channel layout : L R
Sampling rate : 48.0 kHz
Frame rate : 50.000 FPS (960 SPF)
Bit depth : 32 bits
Compression mode : Lossy
Delay relative to video : -7 ms
Stream size : 76.4 MiB (10%)
Title : Tamil
Language : Tamil
Default : No
Forced : No

Text
ID : 3
Format : UTF-8
Codec ID : S_TEXT/UTF8
Language : English

K.G.F Chapter 2 (2022) MALAYALAM 1080p 10bit WEBRip 6CH HEVC HSB (2 GB)

Source …: K.G.F.Chapter.2.2022.Malayalam.1080p.AMZN.WEB-DL.DDP5.1.H.264-ShiNobi
Runtime ……: 2h 45min
Video ……..: HEVC | 1920 x 816 | 10bit
Audio ……..: 6CH HE-AAC MALAYALAM
Subs …………: English

K.G.F Chapter 2 (2022) KANNADA 1080p 10bit WEBRip 6CH HEVC HSB (2 GB)

Source …: K.G.F.Chapter.2.2022.Kannada.1080p.AMZN.WEB-DL.DDP5.1.H.264-ShiNobi
Runtime ……: 2h 45min
Video ……..: HEVC | 1920 x 816 | 10bit
Audio ……..: 6CH HE-AAC KANNADA
Subs …………: English

K.G.F Chapter 2 (2022) MALAYALAM 720p 10bit WEBRip 6CH HEVC HSB (1.08 GB)

Source …: K.G.F.Chapter.2.2022.Malayalam.1080p.AMZN.WEB-DL.DDP5.1.H.264-ShiNobi
Runtime ……: 2h 45min
Video ……..: HEVC | 1280 x 544 | 10bit
Audio ……..: 6CH HE-AAC Malayalam
Subs …………: English

K.G.F Chapter 2 (2022) KANNADA 720p 10bit WEBRip 6CH HEVC HSB (1.08 GB)

Source …: K.G.F.Chapter.2.2022.Kannada.1080p.AMZN.WEB-DL.DDP5.1.H.264-ShiNobi
Runtime ……: 2h 45min
Video ……..: HEVC | 1280 x 544 | 10bit
Audio ……..: 6CH HE-AAC KANNADA
Subs …………: English

Telegram  Download Guide  Donate

K.G.F: Chapter 2 (2022)
K.G.F: Chapter 2 (2022)
K.G.F: Chapter 2 (2022)
K.G.F: Chapter 2 (2022)
K.G.F: Chapter 2 (2022)
K.G.F: Chapter 2 (2022)
K.G.F: Chapter 2 (2022)
K.G.F: Chapter 2 (2022)
Original title ಕೆ.ಜಿ.ಎಫ್: Chapter 2
IMDb Rating 8.9 93,962 votes
TMDb Rating 8.3 39 votes

Director

Cast

Yash isRaja Krishnappa Bairya 'Rocky'
Raja Krishnappa Bairya 'Rocky'
Raveena Tandon isPM Ramika Sen
PM Ramika Sen
Prakash Raj isVijayendra Ingalgi
Vijayendra Ingalgi
Anant Nag isAnand Ingalagi
Anand Ingalagi
Achyuth Kumar isGuru Pandyan
Guru Pandyan
Malavika Avinash isDeepa Hegde
Deepa Hegde
Easwari Rao isFarmaan's mother
Farmaan's mother

Similar titles

The Road Home (1999)
Lucky Star
The Chaser (2008)
Uyare (2019)
Game of Death (1978)
The Burmese Harp (1956)
Ellam Sheriyakum (2021)
Ajeeb Daastaans (2021)
Jolt (2021)
Nna Thaan Case Kodu (2022)
Neon Bull (2016)
Death on the Nile (2022)