Video Sources 0 Views

  • Watch trailer
Karthikeya 2 (2022)

Karthikeya 2 (2022)

Krishna Is TruthAug. 13, 2022India145 Min.N/A
Your rating: 0
8 1 vote

Synopsis

Before the Kalyug begins, Lord Krishna hands over an anklet that holds the answer to all of world’s miseries. Years later a doctor finds himself in the thick of things when the pursuit for the anklet carries on. A doctor with a curious mind, Karthikeya, aka Karthik, believes in pursuing the truth. The quest leads Karthik to discover the power of the ancient Indian belief system and the essence of Krishna.

Karthikeya 2 (2022) 1080p ZEE5 WEB-DL HEVC 10bit Opus 5.1 PoOlLa (1.15 GB)

Format : Matroska
Format version : Version 4
File size : 1.18 GiB
Duration : 2 h 18 min
Overall bit rate : 1 220 kb/s
Movie name : Karthikeya 2 (2022) 1080p ZEE5 WEB-DL HEVC 10bit Opus 5.1 PoOlLa
Writing application : mkvmerge v67.0.0 (‘Under Stars’) 64-bit
Writing library : libebml v1.4.2 + libmatroska v1.6.4

Video
ID : 1
Format : HEVC
Format/Info : High Efficiency Video Coding
Format profile : Main 10@L4@High
Codec ID : V_MPEGH/ISO/HEVC
Duration : 2 h 18 min
Bit rate : 1 009 kb/s
Width : 1 920 pixels
Height : 804 pixels
Display aspect ratio : 2.40:1
Frame rate mode : Constant
Frame rate : 25.000 FPS
Color space : YUV
Chroma subsampling : 4:2:0
Bit depth : 10 bits
Bits/(Pixel*Frame) : 0.026
Stream size : 996 MiB (83%)
Default : Yes
Forced : No
Color range : Limited

Audio
ID : 2
Format : Opus
Codec ID : A_OPUS
Duration : 2 h 18 min
Bit rate : 209 kb/s
Channel(s) : 6 channels
Channel layout : L R C Lb Rb LFE
Sampling rate : 48.0 kHz
Frame rate : 50.000 FPS (960 SPF)
Bit depth : 32 bits
Compression mode : Lossy
Stream size : 206 MiB (17%)
Language : Telugu
Default : Yes
Forced : No

Text
ID : 3
Format : UTF-8
Codec ID : S_TEXT/UTF8
Codec ID/Info : UTF-8 Plain Text
Language : English

Telegram  Download Guide  Donate

Karthikeya 2 (2022)
Karthikeya 2 (2022)
Karthikeya 2 (2022)
Karthikeya 2 (2022)
Karthikeya 2 (2022)
Karthikeya 2 (2022)
Karthikeya 2 (2022)
Karthikeya 2 (2022)
Karthikeya 2 (2022)
Karthikeya 2 (2022)
Original title కార్తికేయ 2
IMDb Rating 8 57,565 votes
TMDb Rating 7.8 9 votes

Director

Cast

Adithya Menon isDr. Shantanu Mukherjee
Dr. Shantanu Mukherjee
Satya isSatya
Satya
Tulasi isKarthikeya's Mother
Karthikeya's Mother
K.S. Sridhar isProf. Ranganatha rao
Prof. Ranganatha rao
Anupam Kher isDr. Dhanvanthri Vedpathak
Dr. Dhanvanthri Vedpathak

Similar titles

The Great Wall (2016)
Kaalapani (1996)
Karma Cartel (2014)
Kuthirai Vaal (2022)
Fight Back to School (1991)
7Aum Arivu
The Hunt for Red October (1990)
Kavaludaari (2019)
Enthiran (2010)
Brotherhood of the Wolf (2001)
Tombstone (1993)
Guru