Kotthu (2022)

Kotthu (2022)

INDIA
Your rating: 0
5 1 vote

Synopsis

Based on real life events tells the story of North Kerala political party workers and their wars out of bloodshed and rebellion.

Kotthu (2022) 1080p AMZN WEB-DL 10bit AV1 Opus 5.1-SMK (1.1 GB)

Format : Matroska
Format version : Version 4
File size : 1.09 GiB
Duration : 2 h 33 min
Overall bit rate : 1 019 kb/s
Encoded date : UTC 2022-10-29 12:00:19
Writing application : mkvmerge v70.0.0 (‘Caught A Lite Sneeze’) 64-bit
Writing library : libebml v1.4.2 + libmatroska v1.6.4

Video
ID : 1
Format : AV1
Format/Info : AOMedia Video 1
Format profile : Main@L4.0
Codec ID : V_AV1
Duration : 2 h 33 min
Bit rate : 822 kb/s
Width : 1 920 pixels
Height : 816 pixels
Display aspect ratio : 2.35:1
Frame rate mode : Constant
Frame rate : 24.000 FPS
Color space : YUV
Chroma subsampling : 4:2:0
Bit depth : 10 bits
Bits/(Pixel*Frame) : 0.022
Stream size : 901 MiB (81%)
Default : Yes
Forced : No
Color range : Limited

Audio
ID : 2
Format : Opus
Codec ID : A_OPUS
Duration : 2 h 33 min
Bit rate : 195 kb/s
Channel(s) : 6 channels
Channel layout : L R C Lb Rb LFE
Sampling rate : 48.0 kHz
Frame rate : 50.000 FPS (960 SPF)
Compression mode : Lossy
Stream size : 214 MiB (19%)
Writing library : Lavc59.25.100 libopus
Language : Malayalam
Default : Yes
Forced : No

Text
ID : 3
Format : UTF-8
Codec ID : S_TEXT/UTF8
Codec ID/Info : UTF-8 Plain Text
Stream size : 72.6 KiB (0%)
Language : English

Telegram  Download Guide  Donate

Director

Director

Cast

Similar titles