Marykkundoru Kunjaadu

Marykkundoru Kunjaadu

Dec. 25, 2010India129 Min.N/A
Your rating: 0
7 1 vote

Synopsis

Dileep plays Solomon in Marykkundoru Kunjadu, a village simpleton who has been nicknamed Kunjadu, since he is adept at getting beaten up by people. In love with Mary (Bhavana) and at loggerheads with her three gigantic brothers, life isn’t easy for Solomon. When he befriends a giant of a man who calls himself Vishnu (Biju Menon) and whom he saves from a well, Solomon starts life afresh, and learns to set his spine straight for once.

Marykkundoru Kunjaadu (2010) 1080p BRrip HEVC 10bit DDP 5.1 PoOlLa (4.6 GB)

Format : Matroska
Format version : Version 4
File size : 4.60 GiB
Duration : 2 h 14 min
Overall bit rate : 4 900 kb/s
Movie name : Marykkundoru Kunjaadu (2010) 1080p BRrip HEVC 10bit DDP 5.1 PoOlLa
Writing application : mkvmerge v67.0.0 (‘Under Stars’) 64-bit
Writing library : libebml v1.4.2 + libmatroska v1.6.4

Video
ID : 1
Format : HEVC
Format/Info : High Efficiency Video Coding
Format profile : Main 10@L4@High
Codec ID : V_MPEGH/ISO/HEVC
Duration : 2 h 14 min
Bit rate : 4 387 kb/s
Width : 1 920 pixels
Height : 824 pixels
Display aspect ratio : 2.35:1
Frame rate mode : Constant
Frame rate : 23.976 FPS
Color space : YUV
Chroma subsampling : 4:2:0
Bit depth : 10 bits
Bits/(Pixel*Frame) : 0.116
Stream size : 4.11 GiB (90%)
Title : cinemakottaga.top
Default : No
Forced : No
Color range : Limited

Audio
ID : 2
Format : E-AC-3
Format/Info : Enhanced AC-3
Commercial name : Dolby Digital Plus
Codec ID : A_EAC3
Duration : 2 h 14 min
Bit rate mode : Constant
Bit rate : 512 kb/s
Channel(s) : 6 channels
Channel layout : L R C LFE Ls Rs
Sampling rate : 48.0 kHz
Frame rate : 31.250 FPS (1536 SPF)
Compression mode : Lossy
Stream size : 492 MiB (10%)
Language : Malayalam
Service kind : Complete Main
Default : Yes
Forced : No

Text
ID : 3
Format : UTF-8
Codec ID : S_TEXT/UTF8
Codec ID/Info : UTF-8 Plain Text
Language : English

Marykkundoru Kunjaadu (2010) 1080p BRrip AV1 10bit Opus 5.1 PoOlLa (1.65 GB)

Format : Matroska
Format version : Version 4
File size : 1.68 GiB
Duration : 2 h 14 min
Overall bit rate : 1 795 kb/s
Movie name : Marykkundoru Kunjaadu (2010) 1080p BRrip AV1 10bit Opus 5.1 PoOlLa
Writing application : mkvmerge v67.0.0 (‘Under Stars’) 64-bit
Writing library : libebml v1.4.2 + libmatroska v1.6.4

Video
ID : 1
Format : AV1
Format/Info : AOMedia Video 1
Format profile : Main@L4.0
Codec ID : V_AV1
Duration : 2 h 14 min
Bit rate : 1 568 kb/s
Width : 1 920 pixels
Height : 824 pixels
Display aspect ratio : 2.35:1
Frame rate mode : Constant
Frame rate : 23.976 (24000/1001) FPS
Color space : YUV
Chroma subsampling : 4:2:0
Bit depth : 10 bits
Bits/(Pixel*Frame) : 0.041
Stream size : 1.47 GiB (87%)
Default : No
Forced : No
Color range : Limited
Color primaries : BT.709
Transfer characteristics : BT.709
Matrix coefficients : BT.709

Audio
ID : 2
Format : Opus
Codec ID : A_OPUS
Duration : 2 h 14 min
Bit rate : 225 kb/s
Channel(s) : 6 channels
Channel layout : L R C Lb Rb LFE
Sampling rate : 48.0 kHz
Frame rate : 50.000 FPS (960 SPF)
Bit depth : 32 bits
Compression mode : Lossy
Delay relative to video : 210 ms
Stream size : 216 MiB (13%)
Language : Malayalam
Default : Yes
Forced : No

Text
ID : 3
Format : UTF-8
Codec ID : S_TEXT/UTF8
Codec ID/Info : UTF-8 Plain Text
Duration : 2 h 12 min
Language : English

Marykkundoru Kunjaadu (2010) 720p BRrip 10bit AV1 Opus 2.0 PoOlLa (910 MB)

Format : Matroska
Format version : Version 4
File size : 912 MiB
Duration : 2 h 14 min
Overall bit rate : 949 kb/s
Movie name : Marykkundoru Kunjaadu (2010) 720p BRrip 10bit AV1 Opus 2.0 PoOlLa
Writing application : mkvmerge v67.0.0 (‘Under Stars’) 64-bit
Writing library : libebml v1.4.2 + libmatroska v1.6.4

Video
ID : 1
Format : AV1
Format/Info : AOMedia Video 1
Format profile : Main@L3.1
Codec ID : V_AV1
Duration : 2 h 14 min
Bit rate : 875 kb/s
Width : 1 280 pixels
Height : 550 pixels
Display aspect ratio : 2.35:1
Frame rate mode : Constant
Frame rate : 23.976 (24000/1001) FPS
Color space : YUV
Chroma subsampling : 4:2:0
Bit depth : 10 bits
Bits/(Pixel*Frame) : 0.052
Stream size : 841 MiB (92%)
Default : No
Forced : No
Color range : Limited
Color primaries : BT.709
Transfer characteristics : BT.709
Matrix coefficients : BT.709

Audio
ID : 2
Format : Opus
Codec ID : A_OPUS
Duration : 2 h 14 min
Bit rate : 71.9 kb/s
Channel(s) : 2 channels
Channel layout : L R
Sampling rate : 48.0 kHz
Frame rate : 50.000 FPS (960 SPF)
Bit depth : 32 bits
Compression mode : Lossy
Delay relative to video : 210 ms
Stream size : 69.0 MiB (8%)
Language : Malayalam
Default : Yes
Forced : No

Text
ID : 3
Format : UTF-8
Codec ID : S_TEXT/UTF8
Codec ID/Info : UTF-8 Plain Text
Language : English

Telegram  Download Guide  Donate

Marykkundoru Kunjaadu
Original title മേരിയ്ക്കുണ്ടൊരു കുഞ്ഞാട്
IMDb Rating 6.6 710 votes
TMDb Rating 6.7 15 votes

Director

Shafi
Director

Cast

Dileep isSolomon
Solomon
Innocent isIttichan Muthalaly
Ittichan Muthalaly
Salim Kumar isLolappan
Lolappan
Jagathy Sreekumar isKundukuzhy Achan
Kundukuzhy Achan
Vijayaraghavan isGeeeVarghese Kapyaar
GeeeVarghese Kapyaar
Vinaya Prasad isMarychedathy
Marychedathy
Kochu Preman isMary's uncle
Mary's uncle

Similar titles

Shaolin Soccer (2001)
Promise Me This (2007)
Fast Times at Ridgemont High
Kallan D’Souza (2022)
Michael Madana Kama Rajan
Da Thadiya
Thallumaala (2022)
Linda Linda Linda (2005)
The Prom (2020)
Happy Halloween Scooby-Doo! (2020)
Youth (2015)
5 to 7 (2014)