Video Sources 0 Views

  • Watch trailer
Naane Varuvean (2022)

Naane Varuvean (2022)

Duo: An epic journeySep. 29, 2022India122 Min.N/A
Your rating: 0
9 1 vote

Synopsis

A father finds out that his teenager daughter is possessed, and the only way he can save her is by doing the ghost’s bidding, which will mean an encounter with his long-separated twin – who happens to be a psycho killer.

Naane Varuvean (2022) 1080p AMZN WEB DL 10bit AV1 Opus 5.1-SMK (855 MB)

Format : Matroska
Format version : Version 4
File size : 856 MiB
Duration : 1 h 58 min
Overall bit rate : 1 009 kb/s
Writing application : mkvmerge v70.0.0 (‘Caught A Lite Sneeze’) 64-bit
Writing library : libebml v1.4.2 + libmatroska v1.6.4 / Lavf59.34.101

Video
ID : 1
Format : AV1
Format/Info : AOMedia Video 1
Format profile : Main@L4.0
Codec ID : V_AV1
Duration : 1 h 58 min
Bit rate : 781 kb/s
Width : 1 920 pixels
Height : 800 pixels
Display aspect ratio : 2.40:1
Frame rate mode : Constant
Frame rate : 24.000 FPS
Color space : YUV
Chroma subsampling : 4:2:0
Bit depth : 10 bits
Bits/(Pixel*Frame) : 0.021
Stream size : 663 MiB (77%)
Default : Yes
Forced : No
Color range : Limited
Color primaries : BT.709
Transfer characteristics : BT.709
Matrix coefficients : BT.709

Audio
ID : 2
Format : Opus
Codec ID : A_OPUS
Duration : 1 h 58 min
Bit rate : 226 kb/s
Channel(s) : 6 channels
Channel layout : L R C Lb Rb LFE
Sampling rate : 48.0 kHz
Frame rate : 50.000 FPS (960 SPF)
Compression mode : Lossy
Stream size : 192 MiB (22%)
Title : Naane.Varuvean.2022.1080p.AMZN.WEB.DL.10bit.AV1.Opus5.1-SMK
Writing library : Lavc59.25.100 libopus
Language : Tamil
Default : Yes
Forced : No

Text
ID : 3
Format : UTF-8
Codec ID : S_TEXT/UTF8
Codec ID/Info : UTF-8 Plain Text
Duration : 1 h 50 min
Bit rate : 36 b/s
Language : English

Telegram  Download Guide  Donate

Naane Varuvean (2022)
Naane Varuvean (2022)
Naane Varuvean (2022)
Naane Varuvean (2022)
Naane Varuvean (2022)
Naane Varuvean (2022)
Naane Varuvean (2022)
Naane Varuvean (2022)
Naane Varuvean (2022)
Naane Varuvean (2022)
Original title நானே வருவேன்
IMDb Rating 6.7 3,070 votes
TMDb Rating 7.333 6 votes

Director

Cast

Dhanush isPrabhu/Kadhir
Prabhu/Kadhir
Elli Avram isMadhuri
Madhuri
Prabhu isPsychiatrist
Psychiatrist
Selvaraghavan isSerial Killer (cameo)
Serial Killer (cameo)

Similar titles

Lux Æterna (2019)
Udta Punjab (2016)
John Luther (2022)
Cowboy Bebop: The Movie (2001)
Pirates of the Caribbean: At World’s End (2007)
One (2021)
Climax
Dunkirk (2017)
Red Notice (2021)
Tell No One (2006)
Red Sun (1971)
Monster Hunter (2020)