Natchathiram Nagargiradhu (2022)

Natchathiram Nagargiradhu (2022)

Love is PoliticalAug. 31, 2022India168 Min.N/A
Your rating: 0
6 1 vote

Synopsis

Love and politics collide when modern day individuals working as theatre artists in fall in love while making a play about love. They realize that it’s the social structure that determines their values and thoughts, and for their love to succeed, they have to go against it.

Natchathiram Nagargiradhu (2022) 1080p NF WEB-DL AV1 HDR10 Opus 5.1 PoOlLa (1.95 GB)

Format : Matroska
Format version : Version 4
File size : 1.97 GiB
Duration : 2 h 48 min
Overall bit rate : 1 672 kb/s
Movie name : Natchathiram Nagargiradhu (2022) 1080p NF WEB-DL AV1 HDR10 Opus 5.1 PoOlLa
Writing application : mkvmerge v67.0.0 (‘Under Stars’) 64-bit
Writing library : libebml v1.4.2 + libmatroska v1.6.4

Video
ID : 1
Format : AV1
Format/Info : AOMedia Video 1
Format profile : Main@L4.0
Codec ID : V_AV1
Duration : 2 h 48 min
Bit rate : 1 445 kb/s
Width : 1 920 pixels
Height : 800 pixels
Display aspect ratio : 2.40:1
Frame rate mode : Constant
Frame rate : 24.000 FPS
Color space : YUV
Chroma subsampling : 4:2:0
Bit depth : 10 bits
Bits/(Pixel*Frame) : 0.039
Stream size : 1.70 GiB (86%)
Default : No
Forced : No
Color range : Limited
Color primaries : BT.2020
Transfer characteristics : PQ
Matrix coefficients : BT.2020 non-constant

Audio
ID : 2
Format : Opus
Codec ID : A_OPUS
Duration : 2 h 48 min
Bit rate : 225 kb/s
Channel(s) : 6 channels
Channel layout : L R C Lb Rb LFE
Sampling rate : 48.0 kHz
Frame rate : 50.000 FPS (960 SPF)
Bit depth : 32 bits
Compression mode : Lossy
Stream size : 271 MiB (13%)
Language : Tamil
Default : Yes
Forced : No

Text
ID : 3
Format : UTF-8
Codec ID : S_TEXT/UTF8
Codec ID/Info : UTF-8 Plain Text
Language : English

Natchathiram Nagargiradhu (2022) 1080p NF WEB-DL AV1 HDR10 Opus 5.1-SMK (1.3 GB)

Format : Matroska
Format version : Version 4
File size : 1.30 GiB
Duration : 2 h 48 min
Overall bit rate : 1 100 kb/s
Movie name : Natchathiram.Nagargiradhu.2022.1080p.HDR10.NF.10bit.AV1.Opus5.1-SMK
Encoded date : UTC 2022-09-29 06:56:45
Writing application : mkvmerge v70.0.0 (‘Caught A Lite Sneeze’) 64-bit
Writing library : libebml v1.4.2 + libmatroska v1.6.4 / Lavf59.31.100

Video
ID : 1
Format : AV1
Format/Info : AOMedia Video 1
Format profile : Main@L4.0
Codec ID : V_AV1
Duration : 2 h 48 min
Bit rate : 900 kb/s
Width : 1 920 pixels
Height : 804 pixels
Display aspect ratio : 2.40:1
Frame rate mode : Constant
Frame rate : 24.000 FPS
Color space : YUV
Chroma subsampling : 4:2:0
Bit depth : 10 bits
Bits/(Pixel*Frame) : 0.024
Stream size : 1.06 GiB (82%)
Writing library : Lavc59.43.100 libsvtav1
Default : Yes
Forced : No
Color range : Limited
Color primaries : BT.2020
Transfer characteristics : PQ
Matrix coefficients : BT.2020 non-constant

Audio
ID : 2
Format : Opus
Codec ID : A_OPUS
Duration : 2 h 48 min
Bit rate : 198 kb/s
Channel(s) : 6 channels
Channel layout : L R C Lb Rb LFE
Sampling rate : 48.0 kHz
Frame rate : 50.000 FPS (960 SPF)
Compression mode : Lossy
Stream size : 239 MiB (18%)
Writing library : Lavc59.25.100 libopus
Language : Tamil
Default : Yes
Forced : No

Text
ID : 3
Format : UTF-8
Codec ID : S_TEXT/UTF8
Codec ID/Info : UTF-8 Plain Text
Language : English

Telegram  Download Guide  Donate

Natchathiram Nagargiradhu (2022)
Natchathiram Nagargiradhu (2022)
Natchathiram Nagargiradhu (2022)
Natchathiram Nagargiradhu (2022)
Natchathiram Nagargiradhu (2022)
Natchathiram Nagargiradhu (2022)
Original title நட்சத்திரம் நகர்கிறது
IMDb Rating 7.9 652 votes

Director

Pa. Ranjith
Director

Cast

Similar titles

A Minute’s Silence (2016)
The Legend of 1900 (1998)
Turtles Can Fly (2004)
Kauravar (1992)
Lux Æterna (2019)
Enemy at the Gates (2001)
Thaen (2021)
Bhaag Milkha Bhaag (2013)
Vinodayathra (2007)
Valkyrie (2008)
In The Heights (2021)
Rathnan Prapancha (2021)