Nna Thaan Case Kodu (2022)

Nna Thaan Case Kodu (2022)

Aug. 11, 2022India139 Min.N/A
Your rating: 0
7 1 vote

Synopsis

A reformed thief’s fight for justice when an innocent act to defend himself places him in loggerheads with the high and mighty of society.

Nna Thaan Case Kodu (2022) 2160p DSNP WEB-DL 10bit AV1 DDP 5.1-SMK (1.85 GB)

Format : Matroska
Format version : Version 4
File size : 1.85 GiB
Duration : 2 h 18 min
Overall bit rate : 1 907 kb/s
Movie name : Nna.Than.Case.Kodu.2022.2160p.DSNP.WEB.DL.10bit.AV1.DD+5.1-SMK
Writing application : Lavf59.28.100
Writing library : Lavf59.28.100

Video
ID : 1
Format : AV1
Format/Info : AOMedia Video 1
Format profile : Main@L5.0
Codec ID : V_AV1
Duration : 2 h 18 min
Bit rate : 1 677 kb/s
Width : 3 840 pixels
Height : 2 024 pixels
Display aspect ratio : 1.897
Frame rate mode : Constant
Frame rate : 24.000 FPS
Color space : YUV
Chroma subsampling : 4:2:0
Bit depth : 10 bits
Bits/(Pixel*Frame) : 0.009
Stream size : 1.62 GiB (88%)
Writing library : Lavc59.38.100 libsvtav1
Default : No
Forced : No
Color range : Limited
Color primaries : BT.709
Transfer characteristics : BT.709
Matrix coefficients : BT.709

Audio
ID : 2
Format : E-AC-3
Format/Info : Enhanced AC-3
Commercial name : Dolby Digital Plus
Codec ID : A_EAC3
Duration : 2 h 18 min
Bit rate mode : Constant
Bit rate : 192 kb/s
Channel(s) : 6 channels
Channel layout : L R C LFE Ls Rs
Sampling rate : 48.0 kHz
Frame rate : 31.250 FPS (1536 SPF)
Bit depth : 32 bits
Compression mode : Lossy
Stream size : 190 MiB (10%)
Title : DDP 5.1 192k
Language : Malayalam
Service kind : Complete Main
Default : Yes
Forced : No

Text
ID : 3
Format : UTF-8
Codec ID : S_TEXT/UTF8
Language : English

Nna Thaan Case Kodu (2022) 1080p DSNP WEB-DL AV1 10bit DDP 5.1 PoOlLa (1 GB)

Format : Matroska
Format version : Version 4
File size : 1 011 MiB
Duration : 2 h 18 min
Overall bit rate : 1 020 kb/s
Movie name : Nna Than Case Kodu (2022) 1080p DSNP WEB-DL AV1 10bit DDP 5.1 PoOlLa
Writing application : mkvmerge v67.0.0 (‘Under Stars’) 64-bit
Writing library : libebml v1.4.2 + libmatroska v1.6.4

Video
ID : 1
Format : AV1
Format/Info : AOMedia Video 1
Format profile : Main@L4.0
Codec ID : V_AV1
Duration : 2 h 18 min
Bit rate : 826 kb/s
Width : 1 920 pixels
Height : 1 012 pixels
Display aspect ratio : 1.897
Frame rate mode : Constant
Frame rate : 24.000 FPS
Color space : YUV
Chroma subsampling : 4:2:0
Bit depth : 10 bits
Bits/(Pixel*Frame) : 0.018
Stream size : 819 MiB (81%)
Default : No
Forced : No
Color range : Limited
Color primaries : BT.709
Transfer characteristics : BT.709
Matrix coefficients : BT.709

Audio
ID : 2
Format : E-AC-3
Format/Info : Enhanced AC-3
Commercial name : Dolby Digital Plus
Codec ID : A_EAC3
Duration : 2 h 18 min
Bit rate mode : Constant
Bit rate : 192 kb/s
Channel(s) : 6 channels
Channel layout : L R C LFE Ls Rs
Sampling rate : 48.0 kHz
Frame rate : 31.250 FPS (1536 SPF)
Bit depth : 32 bits
Compression mode : Lossy
Stream size : 190 MiB (19%)
Language : Malayalam
Service kind : Complete Main
Default : Yes
Forced : No

Text
ID : 3
Format : UTF-8
Codec ID : S_TEXT/UTF8
Codec ID/Info : UTF-8 Plain Text
Language : English

Telegram  Download Guide  Donate

Nna Thaan Case Kodu (2022)
Nna Thaan Case Kodu (2022)
Nna Thaan Case Kodu (2022)
Nna Thaan Case Kodu (2022)
Nna Thaan Case Kodu (2022)
Nna Thaan Case Kodu (2022)
Nna Thaan Case Kodu (2022)
Nna Thaan Case Kodu (2022)
Nna Thaan Case Kodu (2022)
Original title ന്നാ താന്‍ കേസ് കൊട്
IMDb Rating 8.3 2,896 votes
TMDb Rating 8.2 5 votes

Director

Cast

Kunchacko Boban isKozhummal Rajeevan
Kozhummal Rajeevan
Unnimaya Prasad isChief Minister
Chief Minister
Mridul Nair isAkash Kunjikannan
Akash Kunjikannan

Similar titles

Adverse (2020)
Remember (2015)
Varmaa (2020)
Skipped Parts (2000)
Paappi Appachaa (2010)
The Sixth Sense (1999)
Pineapple Express (2008)
Deiva Thirumagal
A Quiet Place (2018)
A Man Who Was Superman (2008)
Osama (2003)
The Man From Toronto (2022)