Video Sources 0 Views

  • Watch trailer
Official Competition (2021)

Official Competition (2021)

The best director, the best actors, the best idea?Sep. 04, 2021Spain114 Min.R
Your rating: 0
5 1 vote

Synopsis

When a billionaire entrepreneur impulsively decides to create an iconic movie, he demands the best. Renowned filmmaker Lola Cuevas is recruited to mastermind this ambitious endeavour. Completing the all-star team are two actors with massive talent but even bigger egos: Hollywood heartthrob Félix Rivero and radical theatre actor Iván Torres. Both are legends, but not exactly best friends. Through a series of increasingly eccentric trials set by Lola, Félix and Iván must confront not only each other but also their own legacies. Who will be left when the cameras finally start rolling?

Official Competition (2021) 1080p BRrip HEVC 10bit Opus 5.1 PoOlLa (735 MB)

Format : Matroska
Format version : Version 4
File size : 735 MiB
Duration : 1 h 55 min
Overall bit rate : 891 kb/s
Movie name : Official Competition (2022) 1080p BRrip HEVC 10bit Opus 5.1 PoOlLa
Writing application : mkvmerge v67.0.0 (‘Under Stars’) 64-bit
Writing library : libebml v1.4.2 + libmatroska v1.6.4

Video
ID : 1
Format : HEVC
Format/Info : High Efficiency Video Coding
Format profile : Main 10@L4@High
Codec ID : V_MPEGH/ISO/HEVC
Duration : 1 h 55 min
Bit rate : 689 kb/s
Width : 1 920 pixels
Height : 804 pixels
Display aspect ratio : 2.40:1
Frame rate mode : Constant
Frame rate : 23.809 FPS
Color space : YUV
Chroma subsampling : 4:2:0
Bit depth : 10 bits
Bits/(Pixel*Frame) : 0.019
Stream size : 568 MiB (77%)
Default : Yes
Forced : No
Color range : Limited

Audio
ID : 2
Format : Opus
Codec ID : A_OPUS
Duration : 1 h 55 min
Bit rate : 200 kb/s
Channel(s) : 6 channels
Channel layout : L R C Lb Rb LFE
Sampling rate : 48.0 kHz
Frame rate : 50.000 FPS (960 SPF)
Bit depth : 32 bits
Compression mode : Lossy
Stream size : 165 MiB (22%)
Language : Spanish
Default : Yes
Forced : No

Text
ID : 3
Format : UTF-8
Codec ID : S_TEXT/UTF8
Language : English

Telegram  Download Guide  Donate

Official Competition (2021)
Official Competition (2021)
Official Competition (2021)
Official Competition (2021)
Official Competition (2021)
Official Competition (2021)
Official Competition (2021)
Official Competition (2021)
Official Competition (2021)
Official Competition (2021)
Original title Competencia oficial
IMDb Rating 7.1 7,735 votes
TMDb Rating 6.791 182 votes

Director

Cast

Penélope Cruz isLola Cuevas
Lola Cuevas
Antonio Banderas isFélix Rivero
Félix Rivero
Oscar Martínez isIván Torres
Iván Torres
José Luis Gómez isHumberto Suárez
Humberto Suárez
Irene Escolar isDiana Suárez
Diana Suárez

Similar titles

Christian Brothers
DJ: Duvvada Jagannadham
Champ (2011)
Halal Love Story
Throne of Blood (1957)
Captain Fantastic (2016)
1983 (2014)
Rosencrantz & Guildenstern Are Dead (1990)
Dilwale Dulhania Le Jayenge (1995)
Ani… Dr. Kashinath Ghanekar (2018)
The Fable: The Killer Who Doesn’t Kill (2021)
Anbarivu (2022)