Oru Thekkan Thallu Case (2022)

Oru Thekkan Thallu Case (2022)

Sep. 08, 2022India150 Min.N/A
Your rating: 0
8 1 vote

Synopsis

We lead our lives in ways where we do not think much before doing something, which may or may not have a huge impact on other people. How our small actions can create big ripples in someone else`s life is the idea on which the film is based.

Oru Thekkan Thallu Case (2022) 1080p NF WEB-DL 10bit AV1 Opus 5.1-SMK (1.1 GB)

Format : Matroska
Format version : Version 4
File size : 1.11 GiB
Duration : 2 h 31 min
Overall bit rate : 1 051 kb/s
Movie name : Oru Thekkan Thallu Case (2022) 1080p NF 10bit AV1 Opus5.1 – SMK
Writing application : mkvmerge v70.0.0 (‘Caught A Lite Sneeze’) 64-bit
Writing library : libebml v1.4.2 + libmatroska v1.6.4 / Lavf59.31.100

Video
ID : 1
Format : AV1
Format/Info : AOMedia Video 1
Format profile : Main@L4.0
Codec ID : V_AV1
Duration : 2 h 31 min
Bit rate : 872 kb/s
Width : 1 920 pixels
Height : 804 pixels
Display aspect ratio : 2.40:1
Frame rate mode : Constant
Frame rate : 24.000 FPS
Color space : YUV
Chroma subsampling : 4:2:0
Bit depth : 10 bits
Bits/(Pixel*Frame) : 0.024
Stream size : 943 MiB (83%)
Writing library : Lavc59.43.100 libsvtav1
Default : No
Forced : No
Color range : Limited
Color primaries : BT.709
Transfer characteristics : BT.709
Matrix coefficients : BT.709

Audio
ID : 2
Format : Opus
Codec ID : A_OPUS
Duration : 2 h 31 min
Bit rate : 176 kb/s
Channel(s) : 6 channels
Channel layout : L R C Lb Rb LFE
Sampling rate : 48.0 kHz
Frame rate : 50.000 FPS (960 SPF)
Compression mode : Lossy
Stream size : 191 MiB (17%)
Writing library : Lavc59.25.100 libopus
Language : Malayalam
Default : Yes
Forced : No

Text
ID : 3
Format : UTF-8
Codec ID : S_TEXT/UTF8
Codec ID/Info : UTF-8 Plain Text
Language : English

Telegram  Download Guide  Donate

Oru Thekkan Thallu Case (2022)
Oru Thekkan Thallu Case (2022)
Oru Thekkan Thallu Case (2022)
Original title ഒരു തെക്കൻ തല്ല് കേസ്
IMDb Rating 7 621 votes
TMDb Rating 6.333 3 votes

Similar titles

The Crazy Stranger (1997)
Bridge of Spies (2015)
3 (2012)
News of the World (2020)
Finch (2021)
Iqbal (2005)
Onaayum Aattukkuttiyum (2013)
Love Actually (2003)
Sanak (2021)
Jack N Jill (2022)
Little Fish (2021)
Crows Zero II (2009)