Palthu Janwar (2022)

Palthu Janwar (2022)

Sep. 02, 2022India117 Min.N/A
Your rating: 0
6 1 vote

Synopsis

Palthu Janwar is a refreshing take on the relation between humans and domestic animals. The movie sketches the life of Prasoon, an animator by profession, who with little interest is forced to take up the government job of a Veterinary Livestock inspector as a compassionate appointment following his father`s death. The movie takes us through the fun filled happenings that awaits Prasoon in his workplace.

Palthu Janwar (2022) 2160p DSNP WEB-DL 10bit AV1 DDP 5.1-SMK (1.8 GB)

Format : Matroska
Format version : Version 4
File size : 1.84 GiB
Duration : 1 h 57 min
Overall bit rate : 2 243 kb/s
Movie name : Palthu.Janwar.2022.2160p.DSNP.10bit.AV1.DDP5.1-SMK
Writing application : mkvmerge v70.0.0 (‘Caught A Lite Sneeze’) 64-bit
Writing library : libebml v1.4.2 + libmatroska v1.6.4 / Lavf59.31.100

Video
ID : 1
Format : AV1
Format/Info : AOMedia Video 1
Format profile : Main@L5.0
Codec ID : V_AV1
Duration : 1 h 57 min
Bit rate : 2 049 kb/s
Width : 3 840 pixels
Height : 1 924 pixels
Display aspect ratio : 1.996
Frame rate mode : Constant
Frame rate : 24.000 FPS
Color space : YUV
Chroma subsampling : 4:2:0
Bit depth : 10 bits
Bits/(Pixel*Frame) : 0.012
Stream size : 1.68 GiB (91%)
Writing library : Lavc59.43.100 libsvtav1
Default : Yes
Forced : No
Color range : Limited
Color primaries : BT.709
Transfer characteristics : BT.709
Matrix coefficients : BT.709

Audio
ID : 2
Format : E-AC-3
Format/Info : Enhanced AC-3
Commercial name : Dolby Digital Plus
Codec ID : A_EAC3
Duration : 1 h 57 min
Bit rate mode : Constant
Bit rate : 192 kb/s
Channel(s) : 6 channels
Channel layout : L R C LFE Ls Rs
Sampling rate : 48.0 kHz
Frame rate : 31.250 FPS (1536 SPF)
Compression mode : Lossy
Stream size : 161 MiB (9%)
Language : Malayalam
Service kind : Complete Main
Default : Yes
Forced : No

Text
ID : 3
Format : UTF-8
Codec ID : S_TEXT/UTF8
Codec ID/Info : UTF-8 Plain Text
Language : English

Telegram  Download Guide  Donate

Palthu Janwar (2022)
Palthu Janwar (2022)
Palthu Janwar (2022)
Palthu Janwar (2022)
Palthu Janwar (2022)
Palthu Janwar (2022)
Original title പാൽതു ജാൻവർ
IMDb Rating 8.8 1,603 votes
TMDb Rating 10 1 votes

Similar titles

Pathaam Valavu (2022)
Training Day (2001)
The Notebook (2004)
To Live (1994)
Jo Pil-ho: The Dawning Rage (2019)
The Invisible Guest (2017)
Michael Clayton (2007)
Fireworks Wednesday (2006)
Scarface
Newton (2017)
Intimate Strangers (2004)
Thenmavin Kombath (1994)