Phir Hera Pheri

Phir Hera Pheri

Jun. 09, 2006India155 Min.N/A
Your rating: 0
8 1 vote

Synopsis

Babu Rao, Raju and Shyam, are living happily after having risen from rags to riches. Still, money brings the joy of riches and with it the greed to make more money – and so, with a don as an unknowing investor, Raju initiates a new game.

Phir Hera Pheri (2006) 1080p AMZN WEB-DL HEVC 10bit AAC 5.1 PoOlLa (1.65 GB)

Format : Matroska
Format version : Version 4
File size : 1.67 GiB
Duration : 2 h 29 min
Overall bit rate : 1 598 kb/s
Movie name : Phir Hera Pheri (2006) 1080p AMZN WEB-DL HEVC 10bit AAC 5.1 PoOlLa
Encoded date : UTC 2022-09-16 03:50:56
Writing application : mkvmerge v67.0.0 (‘Under Stars’) 64-bit
Writing library : libebml v1.4.2 + libmatroska v1.6.4

Video
ID : 1
Format : HEVC
Format/Info : High Efficiency Video Coding
Format profile : Main 10@L4.1@Main
Codec ID : V_MPEGH/ISO/HEVC
Duration : 2 h 29 min
Bit rate : 1 383 kb/s
Width : 1 920 pixels
Height : 808 pixels
Display aspect ratio : 2.40:1
Frame rate mode : Constant
Frame rate : 25.000 FPS
Color space : YUV
Chroma subsampling : 4:2:0
Bit depth : 10 bits
Bits/(Pixel*Frame) : 0.036
Stream size : 1.45 GiB (87%)
Default : Yes
Forced : No
Color range : Limited
Color primaries : BT.709
Transfer characteristics : BT.709
Matrix coefficients : BT.709

Audio
ID : 2
Format : AAC LC SBR
Format/Info : Advanced Audio Codec Low Complexity with Spectral Band Replication
Commercial name : HE-AAC
Format settings : Explicit
Codec ID : A_AAC-2
Duration : 2 h 29 min
Bit rate : 213 kb/s
Channel(s) : 6 channels
Channel layout : C L R Ls Rs LFE
Sampling rate : 48.0 kHz
Frame rate : 23.438 FPS (2048 SPF)
Compression mode : Lossy
Delay relative to video : 40 ms
Stream size : 228 MiB (13%)
Language : Hindi
Default : Yes
Forced : No

Text #1
ID : 3
Format : UTF-8
Codec ID : S_TEXT/UTF8
Codec ID/Info : UTF-8 Plain Text
Duration : 2 h 29 min
Language : English
Language : Arabic

Phir Hera Pheri (2006) 720p AMZN WEB-DL AV1 10bit Opus 2.0 PoOlLa (840 MB)

Format : Matroska
Format version : Version 4
File size : 843 MiB
Duration : 2 h 29 min
Overall bit rate : 787 kb/s
Movie name : Phir Hera Pheri (2006) 720p AMZN WEB-DL AV1 10bit Opus 2.0 PoOlLa
Writing application : mkvmerge v67.0.0 (‘Under Stars’) 64-bit
Writing library : libebml v1.4.2 + libmatroska v1.6.4

Video
ID : 1
Format : AV1
Format/Info : AOMedia Video 1
Format profile : Main@L3.1
Codec ID : V_AV1
Duration : 2 h 29 min
Bit rate : 720 kb/s
Width : 1 280 pixels
Height : 538 pixels
Display aspect ratio : 2.40:1
Frame rate mode : Constant
Frame rate : 25.000 FPS
Color space : YUV
Chroma subsampling : 4:2:0
Bit depth : 10 bits
Bits/(Pixel*Frame) : 0.042
Stream size : 771 MiB (92%)
Default : Yes
Forced : No
Color range : Limited
Color primaries : BT.709
Transfer characteristics : BT.709
Matrix coefficients : BT.709

Audio
ID : 2
Format : Opus
Codec ID : A_OPUS
Duration : 2 h 29 min
Bit rate : 64.4 kb/s
Channel(s) : 2 channels
Channel layout : L R
Sampling rate : 48.0 kHz
Frame rate : 50.000 FPS (960 SPF)
Compression mode : Lossy
Stream size : 69.0 MiB (8%)
Language : Hindi
Default : Yes
Forced : No

Text
ID : 3
Format : UTF-8
Codec ID : S_TEXT/UTF8
Codec ID/Info : UTF-8 Plain Text
Stream size : 86.6 KiB (0%)
Language : English

Telegram  Download Guide  Donate

Phir Hera Pheri
Phir Hera Pheri
Original title Phir Hera Pheri
IMDb Rating 6.9 18,012 votes
TMDb Rating 6.2 52 votes

Director

Neeraj Vora
Director

Cast

Sunil Shetty isGhanshyam (Shyam)
Ghanshyam (Shyam)
Paresh Rawal isBaburao Ganpatrao Apte
Baburao Ganpatrao Apte
Bipasha Basu isAnuradha
Anuradha
Rimi Sen isAnjali
Anjali
Johnny Lever isMunnabhai
Munnabhai
Manoj Joshi isKachra Seth
Kachra Seth

Similar titles

Naran(2005)
Much Ado About Nothing
Goa (2010)
The Nice Guys
Kakkakuyil
Palthu Janwar (2022)
Hitman: Agent Jun (2020)
Bhool Bhulaiyaa 2 (2022)
Delicatessen
The Postman (1994)
Life Is Beautiful (1997)
Hail the Judge (1994)