Ponniyin Selvan: Part I

Ponniyin Selvan: Part I

Your rating: 0
3 1 vote

Synopsis

Vandiyathevan sets out to cross the Chola land to deliver a message from the Crown Prince Aditha Karikalan. Kundavai attempts to establish political peace as vassals and petty chieftains plot against the throne. Unrest grips the land as a long-tailed comet arrives, signalling a time of turmoil.

Ponniyin Selvan Part 1 (2022) 1080p AMZN WEB-DL 10bit AV1 TAM-MAL Opus 5.1-SMK (2.3 GB)

Format : Matroska
Format version : Version 4
File size : 2.35 GiB
Duration : 2 h 46 min
Overall bit rate : 2 013 kb/s
Writing application : mkvmerge v70.0.0 (‘Caught A Lite Sneeze’) 64-bit
Writing library : libebml v1.4.2 + libmatroska v1.6.4 / Lavf59.34.101

Video
ID : 1
Format : AV1
Format/Info : AOMedia Video 1
Format profile : Main@L4.0
Codec ID : V_AV1
Duration : 2 h 46 min
Bit rate : 1 627 kb/s
Width : 1 920 pixels
Height : 800 pixels
Display aspect ratio : 2.40:1
Frame rate mode : Constant
Frame rate : 24.000 FPS
Color space : YUV
Chroma subsampling : 4:2:0
Bit depth : 10 bits
Bits/(Pixel*Frame) : 0.044
Stream size : 1.90 GiB (81%)
Default : Yes
Forced : No
Color range : Limited
Color primaries : BT.709
Transfer characteristics : BT.709
Matrix coefficients : BT.709

Audio #1
ID : 2
Format : Opus
Codec ID : A_OPUS
Duration : 2 h 46 min
Bit rate : 287 kb/s
Channel(s) : 6 channels
Channel layout : L R C Lb Rb LFE
Sampling rate : 48.0 kHz
Frame rate : 50.000 FPS (960 SPF)
Compression mode : Lossy
Stream size : 343 MiB (14%)
Title : Opus 5.1 – 256Kbps
Writing library : Lavc59.25.100 libopus
Language : Tamil
Default : Yes
Forced : No

Audio #2
ID : 3
Format : Opus
Codec ID : A_OPUS
Duration : 2 h 46 min
Bit rate : 94.7 kb/s
Channel(s) : 2 channels
Channel layout : L R
Sampling rate : 48.0 kHz
Frame rate : 50.000 FPS (960 SPF)
Compression mode : Lossy
Stream size : 113 MiB (5%)
Title : OPUS 2.0 – 96Kbps]
Writing library : Lavc59.25.100 libopus
Language : Malayalam
Default : Yes
Forced : No

Text
ID : 4
Format : UTF-8
Codec ID : S_TEXT/UTF8
Codec ID/Info : UTF-8 Plain Text
Duration : 2 h 38 min
Title : English

Ponniyin Selvan Part 1 (2022) 1080p AMZN WEB-DL 10bit AV1 DDP 5.1 TAM-MAL-SMK (1.85 GB)

Format : Matroska
Format version : Version 4
File size : 1.88 GiB
Duration : 2 h 46 min
Overall bit rate : 1 610 kb/s
Writing application : mkvmerge v70.0.0 (‘Caught A Lite Sneeze’) 64-bit
Writing library : libebml v1.4.2 + libmatroska v1.6.4 / Lavf59.34.101

Video
ID : 1
Format : AV1
Format/Info : AOMedia Video 1
Format profile : Main@L4.0
Codec ID : V_AV1
Duration : 2 h 46 min
Bit rate : 1 193 kb/s
Width : 1 920 pixels
Height : 800 pixels
Display aspect ratio : 2.40:1
Frame rate mode : Constant
Frame rate : 24.000 FPS
Color space : YUV
Chroma subsampling : 4:2:0
Bit depth : 10 bits
Bits/(Pixel*Frame) : 0.032
Stream size : 1.39 GiB (74%)
Default : No
Forced : No
Color range : Limited
Color primaries : BT.709
Transfer characteristics : BT.709
Matrix coefficients : BT.709

Audio #1
ID : 2
Format : E-AC-3
Format/Info : Enhanced AC-3
Commercial name : Dolby Digital Plus
Codec ID : A_EAC3
Duration : 2 h 46 min
Bit rate mode : Constant
Bit rate : 320 kb/s
Channel(s) : 6 channels
Channel layout : L R C LFE Ls Rs
Sampling rate : 48.0 kHz
Frame rate : 31.250 FPS (1536 SPF)
Compression mode : Lossy
Stream size : 382 MiB (20%)
Title : EAC3-320Kbps
Language : Tamil
Service kind : Complete Main
Default : Yes
Forced : No

Audio #2
ID : 3
Format : Opus
Codec ID : A_OPUS
Duration : 2 h 46 min
Bit rate : 94.7 kb/s
Channel(s) : 2 channels
Channel layout : L R
Sampling rate : 48.0 kHz
Frame rate : 50.000 FPS (960 SPF)
Compression mode : Lossy
Stream size : 113 MiB (6%)
Title : OPUS 96Kbps
Writing library : Lavc59.25.100 libopus
Language : Malayalam
Default : Yes
Forced : No

Text
ID : 4
Format : UTF-8
Codec ID : S_TEXT/UTF8
Codec ID/Info : UTF-8 Plain Text
Language : English

Telegram  Download Guide  Donate

Director

Director

Cast

Similar titles

Kayamkulam Kochunni (2018)
The Tiger: An Old Hunter’s Tale (2015)
A Royal Affair (2012)
Jarhead (2005)
War of the Arrows (2011)
Bhaag Milkha Bhaag (2013)
There Will Be Blood
Hero (2002)
Bhuj: The Pride of India (2021)
Lawrence of Arabia (1962)
Benedetta (2021)
Munich (2005)