Video Sources 2351 Views

  • Watch trailer
Pushpa: The Rise (2021)

Pushpa: The Rise (2021)

Dec. 16, 2021India179 Min.N/A
Your rating: 0
5.3 3 votes

Synopsis

Pushpa Raj is a coolie who rises in the world of red sandalwood smuggling. Along the way, he doesn’t shy from making an enemy or two.

Pushpa The Rise (2021) Telugu 1080p AMZN WEB-DL HEVC 10bit DDP 5.1 PoOlLa (3.2 GB)

Format : Matroska
Format version : Version 4
File size : 3.25 GiB
Duration : 2 h 55 min
Overall bit rate : 2 646 kb/s
Movie name : Pushpa The Rise (2021) 1080p AMZN WEB-DL HEVC 10bit DDP 5.1 PoOlLa.mkv
Writing application : mkvmerge v64.0.0 (‘Willows’) 64-bit
Writing library : libebml v1.4.2 + libmatroska v1.6.4

Video
ID : 1
Format : HEVC
Format/Info : High Efficiency Video Coding
Format profile : Main 10@L4@High
Codec ID : V_MPEGH/ISO/HEVC
Duration : 2 h 55 min
Bit rate : 2 004 kb/s
Width : 1 920 pixels
Height : 800 pixels
Display aspect ratio : 2.40:1
Frame rate mode : Constant
Frame rate : 24.000 FPS
Color space : YUV
Chroma subsampling : 4:2:0
Bit depth : 10 bits
Bits/(Pixel*Frame) : 0.054
Stream size : 2.46 GiB (76%)
Title : Encoded By PoOlLa
Color range : Limited
Color primaries : BT.709
Transfer characteristics : BT.709
Matrix coefficients : BT.709

Audio
ID : 2
Format : E-AC-3
Format/Info : Enhanced AC-3
Commercial name : Dolby Digital Plus
Codec ID : A_EAC3
Duration : 2 h 55 min
Bit rate mode : Constant
Bit rate : 640 kb/s
Channel(s) : 6 channels
Channel layout : L R C LFE Ls Rs
Sampling rate : 48.0 kHz
Frame rate : 31.250 FPS (1536 SPF)
Compression mode : Lossy
Stream size : 804 MiB (24%)
Title : Telugu
Language : Telugu
Service kind : Complete Main

Text
ID : 3
Format : UTF-8
Codec ID : S_TEXT/UTF8
Title : English
Language : English

Pushpa The Rise Part 1 (2021) Telugu 1080p 10bit AMZN WEB-DL AV1 AAC 5.1 – MPEG7 (2.6GB)

Source …: Pushpa.The.Rise.Part1.2021.1080p.AMZN.WEB-DL.DDP5.1.H.264-TEPES

Format : Matroska
Format version : Version 4
File size : 2.58 GiB
Duration : 2 h 55 min
Overall bit rate : 2 100 kb/s
Movie name : MPEG7 | Pushpa.The.Rise.Part.1.2021.Telugu.1080p.10bit.AMZN.WEB-DL.AV1.AAC.5.1 – MPEG7 | www.cinemakottaga.ml
Encoded date : UTC 2022-01-08 07:18:35
Writing application : mkvmerge v64.0.0 (‘Willows’) 64-bit
Writing library : libebml v1.4.2 + libmatroska v1.6.4
Cover : Yes
Attachments : cover.jpg

Video
ID : 1
Format : AV1
Format/Info : AOMedia Video 1
Format profile : Main@L4.0
Codec ID : V_AV1
Duration : 2 h 55 min
Bit rate : 1 798 kb/s
Width : 1 920 pixels
Height : 800 pixels
Display aspect ratio : 2.40:1
Frame rate mode : Constant
Frame rate : 24.000 FPS
Color space : YUV
Chroma subsampling : 4:2:0
Bit depth : 10 bits
Bits/(Pixel*Frame) : 0.049
Stream size : 2.21 GiB (86%)
Title : MPEG7 | www.cinemakottaga.ml
Default : Yes
Forced : No
Color range : Limited
Color primaries : BT.709
Transfer characteristics : BT.709
Matrix coefficients : BT.709

Audio
ID : 2
Format : AAC LC
Format/Info : Advanced Audio Codec Low Complexity
Codec ID : A_AAC-2
Duration : 2 h 55 min
Bit rate : 300 kb/s
Channel(s) : 6 channels
Channel layout : C L R Ls Rs LFE
Sampling rate : 48.0 kHz
Frame rate : 46.875 FPS (1024 SPF)
Compression mode : Lossy
Delay relative to video : -21 ms
Stream size : 377 MiB (14%)
Title : MPEG7 | www.cinemakottaga.ml
Language : Telugu
Default : Yes
Forced : No

Text
ID : 3
Format : UTF-8
Codec ID : S_TEXT/UTF8
Codec ID/Info : UTF-8 Plain Text
Duration : 2 h 50 min
Bit rate : 66 b/s
Count of elements : 2138
Stream size : 83.5 KiB (0%)
Title : MPEG7 | www.cinemakottaga.ml
Language : English

Pushpa The Rise (2021) Telugu 1080p AMZN WEB-DL HEVC 10bit AAC 5.1 PoOlLa (2.1 GB)

Format : Matroska
Format version : Version 4
File size : 2.14 GiB
Duration : 2 h 55 min
Overall bit rate : 1 741 kb/s
Writing application : mkvmerge v61.0.0 (‘So’) 64-bit
Writing library : libebml v1.4.2 + libmatroska v1.6.4

Video
ID : 1
Format : HEVC
Format/Info : High Efficiency Video Coding
Format profile : Main 10@L4@High
Codec ID : V_MPEGH/ISO/HEVC
Duration : 2 h 55 min
Bit rate : 1 523 kb/s
Width : 1 920 pixels
Height : 800 pixels
Display aspect ratio : 2.40:1
Frame rate mode : Constant
Frame rate : 24.000 FPS
Color space : YUV
Chroma subsampling : 4:2:0
Bit depth : 10 bits
Bits/(Pixel*Frame) : 0.041
Stream size : 1.87 GiB (87%)
Title : Encoded By PoOlLa | cinemakottaga.ml
Color range : Limited

Audio
ID : 2
Format : AAC LC SBR
Format/Info : Advanced Audio Codec Low Complexity with Spectral Band Replication
Commercial name : HE-AAC
Format settings : NBC
Codec ID : A_AAC-5
Duration : 2 h 55 min
Bit rate : 216 kb/s
Channel(s) : 6 channels
Channel layout : C L R Ls Rs LFE
Sampling rate : 48.0 kHz
Frame rate : 23.438 FPS (2048 SPF)
Compression mode : Lossy
Stream size : 271 MiB (12%)
Language : Telugu

Text
ID : 3
Format : UTF-8
Codec ID : S_TEXT/UTF8
Stream size : 83.5 KiB (0%)
Language : English

Pushpa The Rise (2021) Telugu 720p AMZN WEB-DL AV1 10bit Opus 2.0 PoOlLa (985 MB)

Format : Matroska
Format version : Version 4
File size : 986 MiB
Duration : 2 h 55 min
Overall bit rate : 785 kb/s
Writing application : mkvmerge v64.0.0 (‘Willows’) 64-bit
Writing library : libebml v1.4.2 + libmatroska v1.6.4

Video
ID : 1
Format : AV1
Format/Info : AOMedia Video 1
Format profile : Main@L3.1
Codec ID : V_AV1
Duration : 2 h 55 min
Bit rate : 721 kb/s
Width : 1 280 pixels
Height : 528 pixels
Display aspect ratio : 2.40:1
Frame rate mode : Constant
Frame rate : 24.000 FPS
Color space : YUV
Chroma subsampling : 4:2:0
Bit depth : 10 bits
Bits/(Pixel*Frame) : 0.044
Stream size : 906 MiB (92%)
Title : Encoded By PoOlLa
Color range : Limited
Color primaries : BT.709
Transfer characteristics : BT.709
Matrix coefficients : BT.709

Audio
ID : 2
Format : Opus
Codec ID : A_OPUS
Duration : 2 h 55 min
Bit rate : 62.1 kb/s
Channel(s) : 2 channels
Channel layout : L R
Sampling rate : 48.0 kHz
Frame rate : 50.000 FPS (960 SPF)
Bit depth : 32 bits
Compression mode : Lossy
Delay relative to video : -7 ms
Stream size : 78.0 MiB (8%)
Language : Telugu

Text
ID : 3
Format : UTF-8
Codec ID : S_TEXT/UTF8
Codec ID/Info : UTF-8 Plain Text
Stream size : 83.5 KiB (0%)

Pushpa The Rise Part 1 (2021) Kannada + Malayalam + Tamil + Hindi 6CH Audio only

Source …: Pushpa.the.Rise.2021.1080p.CBR.AMZN.WEB-DL.Multi.DDP5.1.H.264-REVOLT
Runtime ……:
Audio ……..: 6CH HE-AAC @216kbps; Hindi 6CH HE-AAC @192kbps

Use MPV for smooth AV1 playback. Use any media player and load external audio according to your choice.

Telegram  Download Guide  Donate

Pushpa: The Rise (2021)
Pushpa: The Rise (2021)
Pushpa: The Rise (2021)
Pushpa: The Rise (2021)
Pushpa: The Rise (2021)
Pushpa: The Rise (2021)
Pushpa: The Rise (2021)
Pushpa: The Rise (2021)
Pushpa: The Rise (2021)
Pushpa: The Rise (2021)
Original title పుష్పా - The Rise
IMDb Rating 8.1 21,527 votes
TMDb Rating 7.4 6 votes

Director

Sukumar
Director

Cast

Allu Arjun isPushpa Raj
Pushpa Raj
Fahadh Faasil isBhanwar Singh Shekhawat
Bhanwar Singh Shekhawat
Dhananjay isJolly Reddy
Jolly Reddy
Rao Ramesh isBhumireddy Siddappa Naidu
Bhumireddy Siddappa Naidu
Sunil Varma isMangalam Srinu
Mangalam Srinu
Ajay Ghosh isKonda Reddy
Konda Reddy
SriTej isPushpa's half brother
Pushpa's half brother
Ajay isPushpa's half brother
Pushpa's half brother

Similar titles

Vendhu Thanindhathu Kaadu (2022)
303 (2018)
Jar City (2006)
Sultan (2016)
Aarkkariyam (2021)
Vortex (2022)
A Good Rain Knows (2009)
Godzilla: King of the Monsters (2019)
Justice, My Foot! (1992)
Mosul (2020)
Amarcord (1973)
Kareeb (1998)