Video Sources 0 Views

  • Watch trailer
Sita Ramam (2022)

Sita Ramam (2022)

A love story written with warAug. 05, 2022India158 Min.N/A
Your rating: 0
5 1 vote

Synopsis

A long-lost letter must find its way to the recipient twenty years later. A rabble-rouser learns a lesson in humility and love along the way.

Sita Ramam (2022) Telugu 1080p AMZN WEB-DL AV1 10bit Opus 5.1 PoOlLa (1.2 GB)

Format : Matroska
Format version : Version 4
File size : 1.21 GiB
Duration : 2 h 38 min
Overall bit rate : 1 098 kb/s
Movie name : Sita Ramam (2022) Telugu 1080p AMZN WEB-DL AV1 10bit Opus 5.1 PoOlLa
Writing application : mkvmerge v67.0.0 (‘Under Stars’) 64-bit
Writing library : libebml v1.4.2 + libmatroska v1.6.4

Video
ID : 1
Format : AV1
Format/Info : AOMedia Video 1
Format profile : Main@L4.0
Codec ID : V_AV1
Duration : 2 h 38 min
Bit rate : 898 kb/s
Width : 1 920 pixels
Height : 804 pixels
Display aspect ratio : 2.40:1
Frame rate mode : Constant
Frame rate : 24.000 FPS
Color space : YUV
Chroma subsampling : 4:2:0
Bit depth : 10 bits
Bits/(Pixel*Frame) : 0.024
Stream size : 1 018 MiB (82%)
Default : No
Forced : No
Color range : Limited
Color primaries : BT.709
Transfer characteristics : BT.709
Matrix coefficients : BT.709

Audio
ID : 2
Format : Opus
Codec ID : A_OPUS
Duration : 2 h 38 min
Bit rate : 197 kb/s
Channel(s) : 6 channels
Channel layout : L R C Lb Rb LFE
Sampling rate : 48.0 kHz
Frame rate : 50.000 FPS (960 SPF)
Bit depth : 32 bits
Compression mode : Lossy
Stream size : 223 MiB (18%)
Language : Telugu
Default : Yes
Forced : No

Text
ID : 3
Format : UTF-8
Codec ID : S_TEXT/UTF8
Codec ID/Info : UTF-8 Plain Text
Language : English

Sita Ramam (2022) [Tam + Mal] 1080p AMZN WEB-DL AV1 10bit Opus 5.1 PoOlLa (1.4 GB)

Format : Matroska
Format version : Version 4
File size : 1.42 GiB
Duration : 2 h 38 min
Overall bit rate : 1 281 kb/s
Movie name : Sita Ramam (2022) [Tam + Mal] 1080p AMZN WEB-DL AV1 10bit Opus 5.1 PoOlLa
Writing application : mkvmerge v67.0.0 (‘Under Stars’) 64-bit
Writing library : libebml v1.4.2 + libmatroska v1.6.4

Video
ID : 1
Format : AV1
Format/Info : AOMedia Video 1
Format profile : Main@L4.0
Codec ID : V_AV1
Duration : 2 h 38 min
Bit rate : 898 kb/s
Width : 1 920 pixels
Height : 804 pixels
Display aspect ratio : 2.40:1
Frame rate mode : Constant
Frame rate : 24.000 FPS
Color space : YUV
Chroma subsampling : 4:2:0
Bit depth : 10 bits
Bits/(Pixel*Frame) : 0.024
Stream size : 1 018 MiB (70%)
Color range : Limited
Color primaries : BT.709
Transfer characteristics : BT.709
Matrix coefficients : BT.709

Audio #1
ID : 2
Format : Opus
Codec ID : A_OPUS
Duration : 2 h 38 min
Bit rate : 190 kb/s
Channel(s) : 6 channels
Channel layout : L R C Lb Rb LFE
Sampling rate : 48.0 kHz
Frame rate : 50.000 FPS (960 SPF)
Compression mode : Lossy
Stream size : 215 MiB (15%)
Language : Malayalam
Default : Yes
Forced : No

Audio #2
ID : 3
Format : Opus
Codec ID : A_OPUS
Duration : 2 h 38 min
Bit rate : 189 kb/s
Channel(s) : 6 channels
Channel layout : L R C Lb Rb LFE
Sampling rate : 48.0 kHz
Frame rate : 50.000 FPS (960 SPF)
Compression mode : Lossy
Stream size : 214 MiB (15%)
Language : Tamil
Default : No
Forced : No

Text
ID : 4
Format : UTF-8
Codec ID : S_TEXT/UTF8
Codec ID/Info : UTF-8 Plain Text
Language : English

Telegram  Download Guide  Donate

Sita Ramam (2022)
Sita Ramam (2022)
Sita Ramam (2022)
Sita Ramam (2022)
Sita Ramam (2022)
Sita Ramam (2022)
Sita Ramam (2022)
Sita Ramam (2022)
Sita Ramam (2022)
Sita Ramam (2022)
Original title సీతా రామం
IMDb Rating 8.1 14,219 votes

Director

Cast

Dulquer Salmaan is'Lieutenant' Ram
'Lieutenant' Ram
Mrunal Thakur isSita Mahalakshmi
Sita Mahalakshmi
Sumanth isBrigadier Vishnu Sharma
Brigadier Vishnu Sharma
Bhumika Chawla isVishnu's Wife
Vishnu's Wife
Jisshu Sengupta isNoor's Brother
Noor's Brother

Similar titles

Andrei Rublev
Batman Begins (2005)
Karnan (2021)
White Wedding (1989)
Life Is Beautiful (2000)
Titanic (1997)
Ee.Ma.Yau (2018)
Compartment No. 6 (2021)
Ishq (2019)
Kaaryasthan(2010)
The Cyclone (1996)
Shadow Kill (2002)