Video Sources 3071 Views

  • Watch trailer
Soorarai Pottru (2020)

Soorarai Pottru (2020)

Nov. 12, 2020IndiaTV-MA
Your rating: 0
8.6 5 votes

Synopsis

Nedumaaran Rajangam “Maara” sets out to make the common man fly and in the process takes on the world’s most capital intensive industry and several enemies who stand in his way.

Soorarai Pottru (2020) 2160p AMZN WEB-DL 10bit AV1 DDP 5.1-SMK (1.8 GB)

Format : Matroska
Format version : Version 4
File size : 1.82 GiB
Duration : 2 h 29 min
Overall bit rate : 1 742 kb/s
Movie name : Soorarai.Pottru.2020.2160p.AMZN.WEB-DL.10bit.AV1.DDP5.1-SMK
Writing application : mkvmerge v68.0.0 (‘The Curtain’) 64-bit
Writing library : libebml v1.4.2 + libmatroska v1.6.4 / Lavf59.28.100

Video
ID : 1
Format : AV1
Format/Info : AOMedia Video 1
Format profile : Main@L5.0
Codec ID : V_AV1
Duration : 2 h 29 min
Bit rate : 1 420 kb/s
Width : 3 840 pixels
Height : 1 600 pixels
Display aspect ratio : 2.40:1
Frame rate mode : Constant
Frame rate : 24.000 FPS
Color space : YUV
Chroma subsampling : 4:2:0
Bit depth : 10 bits
Bits/(Pixel*Frame) : 0.010
Stream size : 1.48 GiB (82%)
Writing library : Lavc59.38.100 libsvtav1
Default : Yes
Forced : No
Color range : Limited
Color primaries : BT.709
Transfer characteristics : BT.709
Matrix coefficients : BT.709

Audio
ID : 2
Format : E-AC-3
Format/Info : Enhanced AC-3
Commercial name : Dolby Digital Plus
Codec ID : A_EAC3
Duration : 2 h 29 min
Bit rate mode : Constant
Bit rate : 320 kb/s
Channel(s) : 6 channels
Channel layout : L R C LFE Ls Rs
Sampling rate : 48.0 kHz
Frame rate : 31.250 FPS (1536 SPF)
Compression mode : Lossy
Stream size : 342 MiB (18%)
Language : Tamil
Service kind : Complete Main
Default : Yes
Forced : No

Text
ID : 3
Format : UTF-8
Codec ID : S_TEXT/UTF8
Codec ID/Info : UTF-8 Plain Text
Stream size : 81.3 KiB (0%)
Language : English

Tamil 720p AMZN WEB-DL 2CH HEVC ESub MPEG7 (722MB)

Duration : 2hr 29min

Source : 1080p Telly 8GB


Video Format : HEVC

Format/Info : High Efficiency Video Coding

Width : 1 280 pixels

Height : 544 pixels

Bit depth : 8bit


Audio Format : AAC

Format/Info : Advanced Audio Codec

Channel(s) : 2 channels

Language : Tamil


Text Format : srt

Language : English

TG

Tamil 1080p AMZN WEBDL HEVC AAC 6CH x265 1.2GB Esub-JrRip

General
File size : 1.2 Gb
Duration : 02:29 hr
Source : AMZN 8GB SH3LBY
Video
Format : HEVC
Format/Info : High Efficiency Video Coding
Width : 1920 pixels
Height : 816 pixels

Audio
Format : AAC
Format/Info : Advanced Audio Codec
Channel(s) :6 Channels (192Kbps)
Language : Tamil  

Text
Format : Srt
Language : English

Language : English

Tamil 1080p 10bit AMZN WEBDL HEVC AAC 6CH x265 1.4GB Esub-JrRip

General
File size : 1.4 Gb 
Duration : 02:29 hr
Source : AMZN 8GB SH3LBY
Video
Format : HEVC
Format/Info : High Efficiency Video Coding
Width : 1920 pixels
Height : 816 pixels

Bit Depth : 10bit

Audio
Format : AAC
Format/Info : Advanced Audio Codec
Channel(s) :6 Channels (256Kbps)
Language : Tamil  

Text
Format : Srt
Language : English

Language : English

Malayalam 1080p AMZN WEBDL HEVC AAC 6CH x265 1.3GB Esub-JrRip

General
File size : 1.3 Gb
Duration : 02:29 hr
Source : AMZN 5GB DUSCLTV
Video
Format : HEVC
Format/Info : High Efficiency Video Coding
Width : 1920 pixels
Height : 816 pixels

Audio
Format : AAC
Format/Info : Advanced Audio Codec
Channel(s) :6 Channels
Language : Malayalam  

Text
Format : Srt
Language : English

Language : English

Telegram  Download Guide  Donate

Original title சூரரைப் போற்று
IMDb Rating 8.6 55,349 votes

Director

Cast

Suriya isNedumaaran Rajangam
Nedumaaran Rajangam "Maara"
Mohan Babu isM. Bhaktavatsalam Naidu
M. Bhaktavatsalam Naidu

Similar titles

Kerala Varma Pazhassi Raja
The Hunt for Red October (1990)
Swan Song (2021)
Good Luck (2014)
The Hand of God (2021)
A Hero (2021)
Wrath of Man (2021)
The Man Standing Next (2020)
Yennai Arindhaal (2015)
Sadayam (1992)
King of Beggars (1992)
Training Day (2001)