Thallumaala (2022)

Thallumaala (2022)

Aug. 12, 2022India146 Min.N/A
Your rating: 0
7 1 vote

Synopsis

Thallumaala revolves around a series of fights in the life of a young man named Wasim, Among these fights, the one that ends up topping the list is the massive fight that breaks out on his wedding day, which transforms Wasim into Manavalan Wasim, the internet sensation he is today. The fact that his bride was Beepaathu, an even bigger internet celebrity, only makes things worse. the Police S.I, Regi Mathew, who now believes his only shot at redemption and going back to normal is through a fist fight to the end with Wasim. As both men gear up for the final brawl, Wasim must also fight the fight of winning back the heart of his lost love and once bride, Beepaathu.

Thallumaala (2022) 2160p SS WEB-DL 10bit AV1 DDP 5.1-SMK (2.25 GB)

Format : Matroska
Format version : Version 4
File size : 2.25 GiB
Duration : 2 h 27 min
Overall bit rate : 2 189 kb/s
Movie name : Thallumaala.2022.2160p.SS.WEB.DL.10bit.AV1.DD+5.1-SMK
Encoded date : UTC 2022-09-13 15:09:12
Writing application : mkvmerge v70.0.0 (‘Caught A Lite Sneeze’) 64-bit
Writing library : libebml v1.4.2 + libmatroska v1.6.4 / Lavf59.28.100

Video
ID : 1
Format : AV1
Format/Info : AOMedia Video 1
Format profile : Main@L5.0
Codec ID : V_AV1
Duration : 2 h 27 min
Bit rate : 1 868 kb/s
Width : 3 840 pixels
Height : 1 610 pixels
Display aspect ratio : 2.40:1
Frame rate mode : Constant
Frame rate : 24.000 FPS
Color space : YUV
Chroma subsampling : 4:2:0
Bit depth : 10 bits
Bits/(Pixel*Frame) : 0.013
Stream size : 1.92 GiB (85%)
Writing library : Lavc59.38.100 libsvtav1
Default : No
Forced : No
Color range : Limited
Color primaries : BT.709
Transfer characteristics : BT.709
Matrix coefficients : BT.709

Audio
ID : 2
Format : E-AC-3
Format/Info : Enhanced AC-3
Commercial name : Dolby Digital Plus
Codec ID : A_EAC3
Duration : 2 h 27 min
Bit rate mode : Constant
Bit rate : 320 kb/s
Channel(s) : 6 channels
Channel layout : L R C LFE Ls Rs
Sampling rate : 48.0 kHz
Frame rate : 31.250 FPS (1536 SPF)
Compression mode : Lossy
Stream size : 337 MiB (15%)
Language : Malayalam
Service kind : Complete Main
Default : Yes
Forced : No

Text
ID : 3
Format : UTF-8
Codec ID : S_TEXT/UTF8
Codec ID/Info : UTF-8 Plain Text
Duration : 2 h 21 min
Bit rate : 69 b/s
Count of elements : 2333
Stream size : 72.3 KiB (0%)
Language : English

Thallumaala (2022) 1080p NF WEB-DL 10bit AV1 Opus 5.1-SMK (965 MB)

Format : Matroska
Format version : Version 4
File size : 968 MiB
Duration : 2 h 26 min
Overall bit rate : 927 kb/s
Movie name : Thallumaala.2022.1080p.NF.WEB.DL.10bit.AV1.Opus5.1-SMK
Writing application : mkvmerge v70.0.0 (‘Caught A Lite Sneeze’) 64-bit
Writing library : libebml v1.4.2 + libmatroska v1.6.4 / Lavf59.28.100

Video
ID : 1
Format : AV1
Format/Info : AOMedia Video 1
Format profile : Main@L4.0
Codec ID : V_AV1
Duration : 2 h 26 min
Bit rate : 689 kb/s
Width : 1 920 pixels
Height : 808 pixels
Display aspect ratio : 2.40:1
Frame rate mode : Constant
Frame rate : 24.000 FPS
Color space : YUV
Chroma subsampling : 4:2:0
Bit depth : 10 bits
Bits/(Pixel*Frame) : 0.018
Stream size : 719 MiB (74%)
Writing library : Lavc59.38.100 libsvtav1
Default : No
Forced : No
Color range : Limited
Color primaries : BT.709
Transfer characteristics : BT.709
Matrix coefficients : BT.709

Audio
ID : 2
Format : Opus
Codec ID : A_OPUS
Duration : 2 h 26 min
Bit rate : 236 kb/s
Channel(s) : 6 channels
Channel layout : L R C Lb Rb LFE
Sampling rate : 48.0 kHz
Frame rate : 50.000 FPS (960 SPF)
Compression mode : Lossy
Stream size : 247 MiB (25%)
Writing library : Lavc59.25.100 libopus
Language : Malayalam
Default : Yes
Forced : No

Text
ID : 3
Format : UTF-8
Codec ID : S_TEXT/UTF8
Codec ID/Info : UTF-8 Plain Text
Language : English

Thallumaala (2022) 720p NF WEB-DL AV1 10bit Opus 2.0 PoOlLa (765 MB)

Format : Matroska
Format version : Version 4
File size : 765 MiB
Duration : 2 h 26 min
Overall bit rate : 733 kb/s
Movie name : Thallumaala (2022) 720p NF WEB-DL AV1 10bit Opus 2.0 PoOlLa
Writing application : mkvmerge v67.0.0 (‘Under Stars’) 64-bit
Writing library : libebml v1.4.2 + libmatroska v1.6.4

Video
ID : 1
Format : AV1
Format/Info : AOMedia Video 1
Format profile : Main@L3.1
Codec ID : V_AV1
Duration : 2 h 26 min
Bit rate : 658 kb/s
Width : 1 280 pixels
Height : 536 pixels
Display aspect ratio : 2.40:1
Frame rate mode : Constant
Frame rate : 24.000 FPS
Color space : YUV
Chroma subsampling : 4:2:0
Bit depth : 10 bits
Bits/(Pixel*Frame) : 0.040
Stream size : 688 MiB (90%)
Title : cinemakottaga.top
Default : Yes
Forced : No
Color range : Limited
Color primaries : BT.709
Transfer characteristics : BT.709
Matrix coefficients : BT.709

Audio
ID : 2
Format : Opus
Codec ID : A_OPUS
Duration : 2 h 26 min
Bit rate : 72.4 kb/s
Channel(s) : 2 channels
Channel layout : L R
Sampling rate : 48.0 kHz
Frame rate : 50.000 FPS (960 SPF)
Compression mode : Lossy
Stream size : 75.6 MiB (10%)
Default : Yes
Forced : No

Text
ID : 3
Format : UTF-8
Codec ID : S_TEXT/UTF8
Codec ID/Info : UTF-8 Plain Text
Stream size : 73.9 KiB (0%)
Language : English

Telegram  Download Guide  Donate

Thallumaala (2022)
Thallumaala (2022)
Thallumaala (2022)
Thallumaala (2022)
Thallumaala (2022)
Thallumaala (2022)
Thallumaala (2022)
Thallumaala (2022)
Thallumaala (2022)
Thallumaala (2022)
Original title തല്ലുമാല
IMDb Rating 7.6 2,085 votes
TMDb Rating 6.3 3 votes

Director

Cast

Tovino Thomas isManavalan Wazeem
Manavalan Wazeem
Kalyani Priyadarshan isVlogger Beepathu / Fathima Beevi
Vlogger Beepathu / Fathima Beevi
Shine Tom Chacko isRegi Mathew
Regi Mathew
Gokulan isRajan Zakariya
Rajan Zakariya
Binu Pappu isKalappurakkal David
Kalappurakkal David

Similar titles

Irumbu Thirai (2018)
Dave Chappelle: The Closer (2021)
Aadukalam (2011)
Unfaithful (2002)
Bullet Train (2022)
The Curious Case of Benjamin Button
Kenjira (2019)
Wheel of Fortune and Fantasy (2021)
The Godfather (1972)
Stri (1995)
The Piano Teacher (2001)
Mayabazar 2016 (2020)