Video Sources 241 Views

  • Watch trailer
The Great Wall (2016)

The Great Wall (2016)

1700 years to build. 5500 miles long. What were they trying to keep out?Dec. 16, 2016United States103 Min.PG-13
Your rating: 0
9 1 vote

Synopsis

European mercenaries searching for black powder become embroiled in the defense of the Great Wall of China against a horde of monstrous creatures.

The Great Wall (2016) 1080p BRrip HEVC AAC 7.1 PoOlLa (1.75 GB)

Download The Great Wall (2016)

General
Format : Matroska
Format version : Version 4
File size : 1.74 GiB
Duration : 1 h 43 min
Overall bit rate : 2 424 kb/s
Writing application : Lavf58.49.100
Writing library : Lavf58.49.100
ErrorDetectionType : Per level 1

Video
ID : 1
Format : HEVC
Format/Info : High Efficiency Video Coding
Format profile : Main@L4@High
Codec ID : V_MPEGH/ISO/HEVC
Duration : 1 h 43 min
Width : 1 920 pixels
Height : 808 pixels
Display aspect ratio : 2.40:1
Frame rate mode : Variable
Original frame rate : 23.976 FPS
Color space : YUV
Chroma subsampling : 4:2:0
Bit depth : 8 bits
Writing library : Lavc58.99.100 libx265
Default : Yes
Forced : No
Color range : Limited
Color primaries : BT.709
Transfer characteristics : BT.709
Matrix coefficients : BT.709

Audio
ID : 2
Format : AAC LC
Format/Info : Advanced Audio Codec Low Complexity
Codec ID : A_AAC-2
Duration : 1 h 43 min
Channel(s) : 8 channels
Channel layout : C L R Ls Rs Lw Rw LFE
Sampling rate : 48.0 kHz
Frame rate : 46.875 FPS (1024 SPF)
Compression mode : Lossy
Writing library : Lavc58.99.100 aac
Default : Yes
Forced : No

Text
ID : 3
Format : UTF-8
Language : English

The Great Wall (2016) 720p BRrip HEVC 10bit AAC 2.0 PoOlLa (640 MB)

Download The Great Wall (2016)

General
Format : Matroska
Format version : Version 4
File size : 643 MiB
Duration : 1 h 43 min
Overall bit rate : 872 kb/s
Encoded date : UTC 2021-02-02 02:33:20
Writing application : mkvmerge v53.0.0 (‘Fool’s Gold’) 64-bit
Writing library : libebml v1.4.1 + libmatroska v1.6.2

Video
ID : 1
Format : HEVC
Format/Info : High Efficiency Video Coding
Format profile : Main 10@L3.1@Main
Codec ID : V_MPEGH/ISO/HEVC
Duration : 1 h 41 min
Bit rate : 821 kb/s
Width : 1 280 pixels
Height : 538 pixels
Display aspect ratio : 2.40:1
Frame rate mode : Constant
Frame rate : 23.976 (24000/1001) FPS
Color space : YUV
Chroma subsampling : 4:2:0
Bit depth : 10 bits
Bits/(Pixel*Frame) : 0.050
Stream size : 594 MiB (92%)
Title : Ripped by PoOlLa | cinemakottaga.ml
Default : Yes
Forced : No
Color range : Limited
Color primaries : BT.709
Transfer characteristics : BT.709
Matrix coefficients : BT.709

Audio
ID : 2
Format : AAC LC SBR
Format/Info : Advanced Audio Codec Low Complexity with Spectral Band Replication
Commercial name : HE-AAC
Format settings : Explicit
Codec ID : A_AAC-2
Duration : 1 h 43 min
Bit rate : 64.6 kb/s
Channel(s) : 2 channels
Channel layout : L R
Sampling rate : 48.0 kHz
Frame rate : 23.438 FPS (2048 SPF)
Compression mode : Lossy
Delay relative to video : 23 ms
Stream size : 47.6 MiB (7%)
Language : Chinese
Default : Yes
Forced : No

Text
ID : 3
Format : UTF-8
Codec ID : S_TEXT/UTF8
Codec ID/Info : UTF-8 Plain Text
Duration : 1 h 28 min
Language : English

Telegram  Download Guide  Donate

The Great Wall (2016)
The Great Wall (2016)
The Great Wall (2016)
The Great Wall (2016)
The Great Wall (2016)
The Great Wall (2016)
The Great Wall (2016)
The Great Wall (2016)
The Great Wall (2016)
The Great Wall (2016)
Original title The Great Wall
IMDb Rating 5.9 125,607 votes
TMDb Rating 5.9 3,715 votes

Director

Zhang Yimou
Director

Cast

Matt Damon isWilliam Garin
William Garin
Jing Tian isGeneral Lin Mei
General Lin Mei
Andy Lau isWang Junshi
Wang Junshi
Pedro Pascal isPero Tovar
Pero Tovar
Zhang Hanyu isGeneral Shao
General Shao
Johnny Cicco isRizzetti
Rizzetti
Lu Han isPeng Yong
Peng Yong
Lin Gengxin isCommander Chen
Commander Chen
Eddie Peng isCommander Wu
Commander Wu

Similar titles

Bairavaa (2017)
Army of the Dead (2021)
Greyhound (2020)
Ramayana: The Legend of Prince Rama (1992)
Monster Hunter (2020)
Yamadonga (2007)
Tom & Jerry (2021)
Akkare Akkare Akkare(1990)
Predator
Ratsasan (2018)
Soorarai Pottru (2020)
The Raid (2012)