Video Sources 0 Views

  • Watch trailer
The Isle (2000)

The Isle (2000)

A beautiful yet dangerous place...Apr. 22, 2000South Korea90 Min.N/A
Your rating: 0
7 1 vote

Synopsis

Mute Hee-Jin is working as a clerk in a fishing resort in the Korean wilderness; selling baits, food and occasionally her body to the fishing tourists. One day she falls in love with Hyun-Shik, who is on the run from the police, and rescues him with a fish hook when he tries to commit suicide.

The Isle (2000) 1080p BRrip HEVC 10bit Opus 5.1 PoOlLa (1.2 GB)

Format : Matroska
Format version : Version 4
File size : 1.26 GiB
Duration : 1 h 30 min
Overall bit rate : 2 000 kb/s
Movie name : The Isle (2000) 1080p BRrip HEVC 10bit Opus 5.1 PoOlLa
Writing application : mkvmerge v67.0.0 (‘Under Stars’) 64-bit
Writing library : libebml v1.4.2 + libmatroska v1.6.4

Video
ID : 1
Format : HEVC
Format/Info : High Efficiency Video Coding
Format profile : Main 10@L4@High
Codec ID : V_MPEGH/ISO/HEVC
Duration : 1 h 30 min
Bit rate : 1 820 kb/s
Width : 1 920 pixels
Height : 1 080 pixels
Display aspect ratio : 16:9
Frame rate mode : Constant
Frame rate : 23.976 FPS
Color space : YUV
Chroma subsampling : 4:2:0
Bit depth : 10 bits
Bits/(Pixel*Frame) : 0.037
Stream size : 1.15 GiB (91%)
Default : No
Forced : No
Color range : Limited

Audio
ID : 2
Format : Opus
Codec ID : A_OPUS
Duration : 1 h 30 min
Bit rate : 178 kb/s
Channel(s) : 6 channels
Channel layout : L R C Lb Rb LFE
Sampling rate : 48.0 kHz
Frame rate : 50.000 FPS (960 SPF)
Bit depth : 32 bits
Compression mode : Lossy
Stream size : 115 MiB (9%)
Language : Korean
Default : Yes
Forced : No

Text
ID : 3
Format : UTF-8
Codec ID : S_TEXT/UTF8
Codec ID/Info : UTF-8 Plain Text
Language : English

The Isle (2000) 720p BRrip 10bit AV1 Opus 2.0 PoOlLa (475 MB)

Format : Matroska
Format version : Version 4
File size : 479 MiB
Duration : 1 h 30 min
Overall bit rate : 741 kb/s
Movie name : The Isle (2000) 720p BRrip 10bit AV1 Opus 2.0 PoOlLa
Writing application : mkvmerge v67.0.0 (‘Under Stars’) 64-bit
Writing library : libebml v1.4.2 + libmatroska v1.6.4

Video
ID : 1
Format : AV1
Format/Info : AOMedia Video 1
Format profile : Main@L3.1
Codec ID : V_AV1
Duration : 1 h 30 min
Bit rate : 675 kb/s
Width : 1 280 pixels
Height : 720 pixels
Display aspect ratio : 16:9
Frame rate mode : Constant
Frame rate : 23.976 (24000/1001) FPS
Color space : YUV
Chroma subsampling : 4:2:0
Bit depth : 10 bits
Bits/(Pixel*Frame) : 0.031
Stream size : 436 MiB (91%)
Default : No
Forced : No
Color range : Limited
Color primaries : BT.709
Transfer characteristics : BT.709
Matrix coefficients : BT.709

Audio
ID : 2
Format : Opus
Codec ID : A_OPUS
Duration : 1 h 30 min
Bit rate : 64.4 kb/s
Channel(s) : 2 channels
Channel layout : L R
Sampling rate : 48.0 kHz
Frame rate : 50.000 FPS (960 SPF)
Bit depth : 32 bits
Compression mode : Lossy
Stream size : 41.6 MiB (9%)
Language : Korean
Default : Yes
Forced : No

Text
ID : 3
Format : UTF-8
Codec ID : S_TEXT/UTF8
Codec ID/Info : UTF-8 Plain Text
Language : English

Telegram  Download Guide  Donate

The Isle (2000)
The Isle (2000)
The Isle (2000)
The Isle (2000)
The Isle (2000)
The Isle (2000)
The Isle (2000)
Original title
IMDb Rating 6.9 13,992 votes
TMDb Rating 6.994 251 votes

Director

Kim Ki-duk
Director

Cast

Suh Jung isHee-Jin
Hee-Jin
Kim Yu-seok isHyun-Shik
Hyun-Shik
Seo Won isEun-ah
Eun-ah
Cho Jae-hyun isMang-Chee
Mang-Chee
Jang Hang-seon isMiddle-aged man
Middle-aged man

Similar titles

The Man from Nowhere (2010)
Elippathayam (1982)
Be with You (2018)
GoodFellas (1990)
Much Ado About Nothing
Garuda Gamana Vrishabha Vahana (2021)
Kate (2021)
The Fighter (2010)
The Perks of Being a Wallflower (2012)
CODA (2021)
This Must Be the Place (2011)
Four Weddings and a Funeral (1994)