Video Sources 609 Views

  • Watch trailer
The Mitchells vs. The Machines (2021)

The Mitchells vs. The Machines (2021)

Saving the world can be a trip.Apr. 22, 2021United States114 Min.PG
Your rating: 0
9 2 votes

Synopsis

A quirky, dysfunctional family’s road trip is upended when they find themselves in the middle of the robot apocalypse and suddenly become humanity’s unlikeliest last hope.

The Mitchells vs the Machines (2021) 720p 10bit BluRay x265 HEVC AAC 2.0 – MPEG7 (670MB)

Source …: The.Mitchells.vs.the.Machines.2021.BluRay.1080p.MULTi.REMUX.AVC.DTS-HD.MA.5.1-LEGi0N

Format : Matroska
Format version : Version 4
File size : 672 MiB
Duration : 1 h 52 min
Overall bit rate : 833 kb/s
Movie name : MPEG7 |The.Mitchells.vs.the.Machines.2021.720p.10bit.BluRay.x265.HEVC.AAC.2.0-MPEG7 | www.cinemakottaga.ml
Encoded date : UTC 2022-01-13 14:22:56
Writing application : mkvmerge v64.0.0 (‘Willows’) 64-bit
Writing library : libebml v1.4.2 + libmatroska v1.6.4
Cover : Yes
Attachments : cover.jpg

Video
ID : 1
Format : HEVC
Format/Info : High Efficiency Video Coding
Format profile : Main 10@L3.1@Main
Codec ID : V_MPEGH/ISO/HEVC
Duration : 1 h 52 min
Bit rate : 735 kb/s
Width : 1 280 pixels
Height : 682 pixels
Display aspect ratio : 1.85:1
Frame rate mode : Constant
Frame rate : 23.976 (24000/1001) FPS
Color space : YUV
Chroma subsampling : 4:2:0
Bit depth : 10 bits
Bits/(Pixel*Frame) : 0.035
Stream size : 593 MiB (88%)
Title : MPEG7 | www.cinemakottaga.ml
Default : Yes
Forced : No
Color range : Limited
Color primaries : BT.709
Transfer characteristics : BT.709
Matrix coefficients : BT.709

Audio
ID : 2
Format : AAC LC SBR
Format/Info : Advanced Audio Codec Low Complexity with Spectral Band Replication
Commercial name : HE-AAC
Format settings : NBC
Codec ID : A_AAC-5
Duration : 1 h 52 min
Bit rate : 72.0 kb/s
Channel(s) : 2 channels
Channel layout : L R
Sampling rate : 48.0 kHz
Frame rate : 23.438 FPS (2048 SPF)
Compression mode : Lossy
Delay relative to video : -105 ms
Stream size : 58.1 MiB (9%)
Title : MPEG7 | www.cinemakottaga.ml
Language : English
Default : Yes
Forced : No

Text
ID : 3
Format : PGS
Muxing mode : zlib
Codec ID : S_HDMV/PGS
Codec ID/Info : Picture based subtitle format used on BDs/HD-DVDs
Duration : 1 h 52 min
Bit rate : 46.8 kb/s
Count of elements : 3629
Stream size : 37.6 MiB (6%)
Title : MPEG7 | www.cinemakottaga.ml
Language : English
Default : No
Forced : No

 

The Mitchells vs the Machines (2021) 1080p 10bit BluRay x265 HEVC AAC 5.1 – MPEG7 (2GB)

Source …: The.Mitchells.vs.the.Machines.2021.BluRay.1080p.MULTi.REMUX.AVC.DTS-HD.MA.5.1-LEGi0N

Format : Matroska
Format version : Version 4
File size : 2.05 GiB
Duration : 1 h 52 min
Overall bit rate : 2 598 kb/s
Movie name : MPEG7 | The.Mitchells.vs.the.Machines.2021.1080p.10bit.BluRay.x265.6CH.AAC.HEVC-MPEG7 | www.cinemakottaga.ml
Encoded date : UTC 2022-01-14 06:23:46
Writing application : mkvmerge v64.0.0 (‘Willows’) 64-bit
Writing library : libebml v1.4.2 + libmatroska v1.6.4
Cover : Yes
Attachments : cover.jpg

Video
ID : 1
Format : HEVC
Format/Info : High Efficiency Video Coding
Format profile : Main 10@L4@High
Codec ID : V_MPEGH/ISO/HEVC
Duration : 1 h 52 min
Bit rate : 2 250 kb/s
Width : 1 920 pixels
Height : 1 024 pixels
Display aspect ratio : 1.85:1
Frame rate mode : Constant
Frame rate : 23.976 (24000/1001) FPS
Color space : YUV
Chroma subsampling : 4:2:0
Bit depth : 10 bits
Bits/(Pixel*Frame) : 0.048
Stream size : 1.77 GiB (87%)
Title : MPEG7 | www.cinemakottaga.ml
Default : Yes
Forced : No
Color range : Limited

Audio
ID : 2
Format : AAC LC
Format/Info : Advanced Audio Codec Low Complexity
Codec ID : A_AAC-2
Duration : 1 h 52 min
Bit rate : 321 kb/s
Channel(s) : 6 channels
Channel layout : C L R Ls Rs LFE
Sampling rate : 48.0 kHz
Frame rate : 46.875 FPS (1024 SPF)
Compression mode : Lossy
Stream size : 259 MiB (12%)
Title : MPEG7 | www.cinemakottaga.ml
Language : English
Default : Yes
Forced : No

Text
ID : 3
Format : PGS
Muxing mode : zlib
Codec ID : S_HDMV/PGS
Codec ID/Info : Picture based subtitle format used on BDs/HD-DVDs
Duration : 1 h 52 min
Bit rate : 46.8 kb/s
Count of elements : 3629
Stream size : 37.6 MiB (2%)
Title : MPEG7 | www.cinemakottaga.ml
Language : English
Default : No
Forced : No

Menu
00:00:00.000 : :Chapter 01
00:04:58.173 : :Chapter 02
00:13:35.481 : :Chapter 03
00:19:11.275 : :Chapter 04
00:23:59.188 : :Chapter 05
00:30:49.055 : :Chapter 06
00:36:55.630 : :Chapter 07
00:45:20.134 : :Chapter 08
00:51:39.888 : :Chapter 09
00:57:43.543 : :Chapter 10
01:06:24.397 : :Chapter 11
01:13:25.234 : :Chapter 12
01:21:14.161 : :Chapter 13
01:27:37.627 : :Chapter 14
01:30:38.516 : :Chapter 15
01:42:12.668 : :Chapter 16
01:45:35.329 : :Chapter 17

 

 

 

The Mitchells vs. the Machines (2021) 720p 10bit NF WEB-DL 2CH HEVC MPEG7 (515MB)

Source ………: The.Mitchells.vs.The.Machines.2021.1080p.NF.WEB-DL.HIn-ENG.DDP5.1.Atmos.x264-Telly
Runtime ……: 1hr 54min
Video ……….: HEVC | 1280 x 682 | 10bit
Audio ……….: 2CH HE-AAC English
Subs …………: English

The Mitchells vs. the Machines (2021) 1080p 10bit NF WEB-DL ENG-HINDI 6CH HEVC MPEG7 (1.4GB)

Source ………: The.Mitchells.vs.The.Machines.2021.1080p.NF.WEB-DL.HIn-ENG.DDP5.1.Atmos.x264-Telly
Runtime ……: 1hr 54min
Video ……….: HEVC | 1920 x 1032 | 10bit
Audio ……….: 6CH AAC-LC English + 6CH HE-AAC Hindi
Subs …………: English

 

Telegram  Download Guide  Donate

The Mitchells vs. The Machines (2021)
The Mitchells vs. The Machines (2021)
The Mitchells vs. The Machines (2021)
The Mitchells vs. The Machines (2021)
The Mitchells vs. The Machines (2021)
The Mitchells vs. The Machines (2021)
The Mitchells vs. The Machines (2021)
The Mitchells vs. The Machines (2021)
The Mitchells vs. The Machines (2021)
Original title The Mitchells vs. The Machines
IMDb Rating 8.5 81 votes
TMDb Rating 8 37 votes

Director

Jeff Rowe
Director

Cast

Abbi Jacobson isKatie Mitchell / Dog Cop (voice)
Katie Mitchell / Dog Cop (voice)
Danny McBride isRick Mitchell (voice)
Rick Mitchell (voice)
Maya Rudolph isLinda Mitchell (voice)
Linda Mitchell (voice)
Michael Rianda isAaron Mitchell / Furbies / Talking Dog / Wifi Enthusiast (voice)
Aaron Mitchell / Furbies / Talking Dog / Wifi Enthusiast (voice)
Eric André isMark Bowman (voice)
Mark Bowman (voice)
Olivia Colman isPAL (voice)
PAL (voice)
Fred Armisen isDeborahbot 5000 (voice)
Deborahbot 5000 (voice)
Beck Bennett isEric / Pal Max Robots (voice)
Eric / Pal Max Robots (voice)
Chrissy Teigen isHailey Posey (voice)
Hailey Posey (voice)
John Legend isJim Posey (voice)
Jim Posey (voice)

Similar titles

Mandibles (2020)
Minnal Murali (2021)
The Northman (2022)
Casino Royale (2006)
Tughlaq Durbar (2021)
Swapnakoodu(2003)
Spider-Man: Homecoming (2017)
Lord Livingstone 7000 Kandi
Family Relations (1982)
Monella (1998)
Jagame Thandhiram (2021)
Punch-Drunk Love