Video Sources 0 Views

  • Watch trailer
The Roundup (2022)

The Roundup (2022)

The Beast Cop Is Back!May. 18, 2022South Korea106 Min.N/A
Your rating: 0
7 1 vote

Synopsis

The ‘Beast Cop’ Ma Seok-do heads to a foreign country to extradite a suspect, but soon after his arrival, he discovers additional murder cases and hears about a vicious killer who has been committing crimes against tourists for several years.

The Roundup (2022) 1080p AMZN WEB-DL HEVC 10bit Opus 5.1 PoOlLa (950 MB)

Format : Matroska
Format version : Version 4
File size : 953 MiB
Duration : 1 h 46 min
Overall bit rate : 1 255 kb/s
Movie name : The Roundup (2022) 1080p AMZN WEB-DL HEVC 10bit Opus 5.1 PoOlLa
Writing application : mkvmerge v67.0.0 (‘Under Stars’) 64-bit
Writing library : libebml v1.4.2 + libmatroska v1.6.4

Video
ID : 1
Format : HEVC
Format/Info : High Efficiency Video Coding
Format profile : Main 10@L4.1@Main
Codec ID : V_MPEGH/ISO/HEVC
Duration : 1 h 46 min
Bit rate : 1 039 kb/s
Width : 1 920 pixels
Height : 800 pixels
Display aspect ratio : 2.40:1
Frame rate mode : Constant
Frame rate : 23.976 (24000/1001) FPS
Color space : YUV
Chroma subsampling : 4:2:0
Bit depth : 10 bits
Bits/(Pixel*Frame) : 0.028
Stream size : 789 MiB (83%)
Title : cinemakottaga.top
Default : Yes
Forced : No
Color range : Limited
Color primaries : BT.709
Transfer characteristics : BT.709
Matrix coefficients : BT.709

Audio
ID : 2
Format : Opus
Codec ID : A_OPUS
Duration : 1 h 46 min
Bit rate : 213 kb/s
Channel(s) : 6 channels
Channel layout : L R C Lb Rb LFE
Sampling rate : 48.0 kHz
Frame rate : 50.000 FPS (960 SPF)
Compression mode : Lossy
Stream size : 162 MiB (17%)
Writing library : Lavc59.37.100 libopus
Language : Korean
Default : Yes
Forced : No

Text
ID : 3
Format : UTF-8
Codec ID : S_TEXT/UTF8
Codec ID/Info : UTF-8 Plain Text
Language : English

Telegram  Download Guide  Donate

The Roundup (2022)
The Roundup (2022)
The Roundup (2022)
The Roundup (2022)
The Roundup (2022)
The Roundup (2022)
The Roundup (2022)
The Roundup (2022)
The Roundup (2022)
The Roundup (2022)
Original title 범죄도시 2
IMDb Rating 7.1 3,545 votes
TMDb Rating 7.269 65 votes

Director

Cast

Ma Dong-seok isMa Seok-do
Ma Seok-do
Son Suk-ku isKang Hae-sang
Kang Hae-sang
Choi Gwi-hwa isJeon Il-man
Jeon Il-man
Park Ji-hwan isJang I-soo
Jang I-soo
Heo Dong-won isOh Dong-gyun
Oh Dong-gyun
Ha Jun isKang Hong-seok
Kang Hong-seok
Jeong Jae-kwang isKim Sang-hoon
Kim Sang-hoon
Nam Moon-chul isChoi Chun-baek
Choi Chun-baek
Park Ji-young isKim In-sook
Kim In-sook
Lee Ju-won isConsul Park
Consul Park

Similar titles

The Godfather: Part II (1974)
Sonic the Hedgehog 2 (2022)
Sarkaru Vaari Paata (2022)
Nishant (1975)
Cell 211 (2009)
Baaghi (2016)
The Doorman
Mrigaya(1989)
Ong Bak 2
Sarpatta Parambarai (2021)
Godzilla: King of the Monsters (2019)
American Sniper (2014)