Thiruchitrambalam (2022)

Thiruchitrambalam (2022)

Experience the life of PazhamAug. 18, 2022India133 Min.N/A
Your rating: 0
9 1 vote

Synopsis

A guy-next-door tries to find romance in his life while also dealing with his personal problems. How long will it be before he realises what he is looking for is right next to him?

Thiruchitrambalam (2022) 2160p SNXT WEB-DL 10bit AV1 Opus 5.1-SMK (1.8 GB)

Format : Matroska
Format version : Version 4
File size : 1.78 GiB
Duration : 2 h 11 min
Overall bit rate : 1 937 kb/s
Movie name : Thiruchitrambalam.2022.2160p.SNXT.10bit.AV1.Opus5.1-SMK
Writing application : mkvmerge v70.0.0 (‘Caught A Lite Sneeze’) 64-bit
Writing library : libebml v1.4.2 + libmatroska v1.6.4 / Lavf59.31.100

Video
ID : 1
Format : AV1
Format/Info : AOMedia Video 1
Format profile : Main@L5.0
Codec ID : V_AV1
Duration : 2 h 11 min
Bit rate : 1 712 kb/s
Width : 3 840 pixels
Height : 2 076 pixels
Display aspect ratio : 1.85:1
Frame rate mode : Constant
Frame rate : 24.000 FPS
Color space : YUV
Chroma subsampling : 4:2:0
Bit depth : 10 bits
Bits/(Pixel*Frame) : 0.009
Stream size : 1.57 GiB (88%)
Writing library : Lavc59.43.100 libsvtav1
Default : No
Forced : No
Color range : Limited
Color primaries : BT.709
Transfer characteristics : BT.709
Matrix coefficients : BT.709

Audio
ID : 2
Format : Opus
Codec ID : A_OPUS
Duration : 2 h 11 min
Bit rate : 223 kb/s
Channel(s) : 6 channels
Channel layout : L R C Lb Rb LFE
Sampling rate : 48.0 kHz
Frame rate : 50.000 FPS (960 SPF)
Compression mode : Lossy
Stream size : 209 MiB (12%)
Writing library : Lavc59.25.100 libopus
Language : Tamil
Default : Yes
Forced : No

Text
ID : 3
Format : UTF-8
Codec ID : S_TEXT/UTF8
Codec ID/Info : UTF-8 Plain Text
Language : English

Thiruchitrambalam (2022) 1080p SNXT UHD WEB-DL HEVC 10bit DDP Atmos 5.1 PoOlLa (1.85 GB)

Format : Matroska
Format version : Version 4
File size : 1.84 GiB
Duration : 2 h 11 min
Overall bit rate : 2 004 kb/s
Movie name : Thiruchitrambalam (2022) 1080p SNXT UHD WEB-DL HEVC 10bit DDP Atmos 5.1 PoOlLa
Writing application : mkvmerge v67.0.0 (‘Under Stars’) 64-bit
Writing library : libebml v1.4.2 + libmatroska v1.6.4

Video
ID : 1
Format : HEVC
Format/Info : High Efficiency Video Coding
Format profile : Main 10@L4@High
Codec ID : V_MPEGH/ISO/HEVC
Duration : 2 h 11 min
Bit rate : 1 554 kb/s
Width : 1 920 pixels
Height : 1 036 pixels
Display aspect ratio : 1.85:1
Frame rate mode : Constant
Frame rate : 24.000 FPS
Color space : YUV
Chroma subsampling : 4:2:0
Bit depth : 10 bits
Bits/(Pixel*Frame) : 0.033
Stream size : 1.43 GiB (78%)
Title : cinemakottaga.top
Default : Yes
Forced : No
Color range : Limited

Audio
ID : 2
Format : E-AC-3 JOC
Format/Info : Enhanced AC-3 with Joint Object Coding
Commercial name : Dolby Digital Plus with Dolby Atmos
Codec ID : A_EAC3
Duration : 2 h 11 min
Bit rate mode : Constant
Bit rate : 448 kb/s
Channel(s) : 6 channels
Channel layout : L R C LFE Ls Rs
Sampling rate : 48.0 kHz
Frame rate : 31.250 FPS (1536 SPF)
Bit depth : 32 bits
Compression mode : Lossy
Stream size : 421 MiB (22%)
Language : Tamil
Service kind : Complete Main
Default : Yes
Forced : No
Complexity index : 16
Number of dynamic objects : 15
Bed channel count : 1 channel
Bed channel configuration : LFE

Text
ID : 3
Format : UTF-8
Codec ID : S_TEXT/UTF8
Codec ID/Info : UTF-8 Plain Text
Language : English

Thiruchitrambalam (2022) 1080p SNXT WEB-DL AV1 10bit Opus 5.1 PoOlLa (1 GB)

Format : Matroska
Format version : Version 4
File size : 1.04 GiB
Duration : 2 h 11 min
Overall bit rate : 1 132 kb/s
Movie name : Thiruchitrambalam (2022) 1080p SNXT WEB-DL AV1 10bit Opus 5.1 PoOlLa
Writing application : mkvmerge v67.0.0 (‘Under Stars’) 64-bit
Writing library : libebml v1.4.2 + libmatroska v1.6.4

Video
ID : 1
Format : AV1
Format/Info : AOMedia Video 1
Format profile : Main@L4.0
Codec ID : V_AV1
Duration : 2 h 11 min
Bit rate : 922 kb/s
Width : 1 920 pixels
Height : 1 036 pixels
Display aspect ratio : 1.85:1
Frame rate mode : Constant
Frame rate : 24.000 FPS
Color space : YUV
Chroma subsampling : 4:2:0
Bit depth : 10 bits
Bits/(Pixel*Frame) : 0.019
Stream size : 866 MiB (81%)
Title : cinemakottaga.top
Default : No
Forced : No
Color range : Limited
Color primaries : BT.709
Transfer characteristics : BT.709
Matrix coefficients : BT.709

Audio
ID : 2
Format : Opus
Codec ID : A_OPUS
Duration : 2 h 11 min
Bit rate : 208 kb/s
Channel(s) : 6 channels
Channel layout : L R C Lb Rb LFE
Sampling rate : 48.0 kHz
Frame rate : 50.000 FPS (960 SPF)
Bit depth : 32 bits
Compression mode : Lossy
Stream size : 195 MiB (18%)
Language : Tamil
Default : Yes
Forced : No

Text
ID : 3
Format : UTF-8
Codec ID : S_TEXT/UTF8
Codec ID/Info : UTF-8 Plain Text
Language : English

Telegram  Download Guide  Donate

Thiruchitrambalam (2022)
Thiruchitrambalam (2022)
Thiruchitrambalam (2022)
Thiruchitrambalam (2022)
Thiruchitrambalam (2022)
Thiruchitrambalam (2022)
Thiruchitrambalam (2022)
Thiruchitrambalam (2022)
Thiruchitrambalam (2022)
Thiruchitrambalam (2022)
Original title திருச்சிற்றம்பலம்
IMDb Rating 8.1 5,720 votes
TMDb Rating 7.2 5 votes

Director

Cast

Dhanush isThiruchitrambalam
Thiruchitrambalam
Bharathiraja isThiruchitrambalam Sr.
Thiruchitrambalam Sr.
Prakash Raj isInspector Neelakandan
Inspector Neelakandan
Munishkanth isSubbaraj
Subbaraj
Revathi isPazham's mother
Pazham's mother
Sriranjini isRajeswari
Rajeswari

Similar titles

Love on Delivery (1994)
Ani… Dr. Kashinath Ghanekar (2018)
Encanto (2021)
Ithu Thaanda Police
Yaaradi Nee Mohini (2008)
My Lovely Angel (2021)
Call Me by Your Name (2017)
Earth (1998)
Sexy Durga (2018)
Mard Ko Dard Nahi Hota (2018)
Antonia’s Line (1996)
XXY (2007)