Video Sources 0 Views

  • Watch trailer
Thor: Love and Thunder (2022)

Thor: Love and Thunder (2022)

The one is not the only.Jul. 06, 2022Australia119 Min.PG-13
Your rating: 0
6 1 vote

Synopsis

After his retirement is interrupted by Gorr the God Butcher, a galactic killer who seeks the extinction of the gods, Thor Odinson enlists the help of King Valkyrie, Korg, and ex-girlfriend Jane Foster, who now wields Mjolnir as the Mighty Thor. Together they embark upon a harrowing cosmic adventure to uncover the mystery of the God Butcher’s vengeance and stop him before it’s too late.

Thor Love and Thunder (2022) 1080p WEB-DL AV1 HDR10 Opus 5.1 PoOlLa (1.2 GB)

Format : Matroska
Format version : Version 4
File size : 1.22 GiB
Duration : 1 h 58 min
Overall bit rate : 1 472 kb/s
Movie name : Thor Love and Thunder (2022) 1080p WEB-DL AV1 HDR10 Opus 5.1 PoOlLa
Writing application : mkvmerge v67.0.0 (‘Under Stars’) 64-bit
Writing library : libebml v1.4.2 + libmatroska v1.6.4

Video
ID : 1
Format : AV1
Format/Info : AOMedia Video 1
Format profile : Main@L4.0
Codec ID : V_AV1
Duration : 1 h 58 min
Bit rate : 1 208 kb/s
Width : 1 920 pixels
Height : 804 pixels
Display aspect ratio : 2.40:1
Frame rate mode : Constant
Frame rate : 23.976 (24000/1001) FPS
Color space : YUV
Chroma subsampling : 4:2:0
Bit depth : 10 bits
Bits/(Pixel*Frame) : 0.033
Stream size : 1.00 GiB (82%)
Default : Yes
Forced : No
Color range : Limited
Color primaries : BT.2020
Transfer characteristics : PQ
Matrix coefficients : BT.2020 non-constant

Audio
ID : 2
Format : Opus
Codec ID : A_OPUS
Duration : 1 h 58 min
Bit rate : 262 kb/s
Channel(s) : 6 channels
Channel layout : L R C Lb Rb LFE
Sampling rate : 48.0 kHz
Frame rate : 50.000 FPS (960 SPF)
Compression mode : Lossy
Stream size : 223 MiB (18%)
Language : English
Default : Yes
Forced : No

Text
ID : 3
Format : UTF-8
Codec ID : S_TEXT/UTF8
Language : English

Telegram  Download Guide  Donate

Thor: Love and Thunder (2022)
Thor: Love and Thunder (2022)
Thor: Love and Thunder (2022)
Thor: Love and Thunder (2022)
Thor: Love and Thunder (2022)
Thor: Love and Thunder (2022)
Thor: Love and Thunder (2022)
Thor: Love and Thunder (2022)
Thor: Love and Thunder (2022)
Thor: Love and Thunder (2022)
Original title Thor: Love and Thunder
IMDb Rating 6.7 177,897 votes
TMDb Rating 6.777 2,342 votes

Director

Cast

Chris Hemsworth isThor Odinson
Thor Odinson
Natalie Portman isJane Foster / The Mighty Thor
Jane Foster / The Mighty Thor
Tessa Thompson isKing Valkyrie
King Valkyrie
Taika Waititi isKorg / Old Kronan God (voice)
Korg / Old Kronan God (voice)
Chris Pratt isPeter Quill / Star-Lord
Peter Quill / Star-Lord

Similar titles

Iron Man (2008)
Style
Agneepath (2012)
Parava
Kumki (2012)
No Mercy (2010)
The Shock
Haider (2014)
A Touch of Zen (1971)
At Home Among Strangers (1974)
Run Lola Run (1998)
Paiyaa (2010)