Video Sources 0 Views

  • Watch trailer
Three Thousand Years of Longing (2022)

Three Thousand Years of Longing (2022)

What would you wish for?Aug. 24, 2022Australia108 Min.R
Your rating: 0
8 1 vote

Synopsis

A solitary scholar discovers an ancient bottle while on a trip to Istanbul and unleashes a djinn who offers her three wishes. Filled with reluctance, she is unable to come up with one until his stories spark in her a desire to be loved.

Three Thousand Years of Longing (2022) 1080p WEB-DL AV1 HDR10 Opus 5.1 PoOlLa (890 MB)

Format : Matroska
Format version : Version 4
File size : 891 MiB
Duration : 1 h 48 min
Overall bit rate : 1 146 kb/s
Movie name : Three Thousand Years of Longing (2022) 1080p WEB-DL AV1 HDR10 Opus 5.1 PoOlLa
Writing application : mkvmerge v67.0.0 (‘Under Stars’) 64-bit
Writing library : libebml v1.4.2 + libmatroska v1.6.4

Video
ID : 1
Format : AV1
Format/Info : AOMedia Video 1
Format profile : Main@L4.0
Codec ID : V_AV1
Duration : 1 h 48 min
Bit rate : 875 kb/s
Width : 1 920 pixels
Height : 802 pixels
Display aspect ratio : 2.40:1
Frame rate mode : Constant
Frame rate : 23.976 (24000/1001) FPS
Color space : YUV
Chroma subsampling : 4:2:0
Bit depth : 10 bits
Bits/(Pixel*Frame) : 0.024
Stream size : 680 MiB (76%)
Default : Yes
Forced : No
Color range : Limited
Color primaries : BT.2020
Transfer characteristics : PQ
Matrix coefficients : BT.2020 non-constant

Audio
ID : 2
Format : Opus
Codec ID : A_OPUS
Duration : 1 h 48 min
Bit rate : 270 kb/s
Channel(s) : 6 channels
Channel layout : L R C Lb Rb LFE
Sampling rate : 48.0 kHz
Frame rate : 50.000 FPS (960 SPF)
Compression mode : Lossy
Delay relative to video : 16 s 0 ms
Stream size : 209 MiB (23%)
Default : Yes
Forced : No

Text
ID : 3
Format : UTF-8
Codec ID : S_TEXT/UTF8
Stream size : 35.9 KiB (0%)
Language : English

Three Thousand Years of Longing (2022) 720p AMZN WEB-DL 10bit AV1 Opus 2.0 PoOlLa (370 MB)

Format : Matroska
Format version : Version 4
File size : 373 MiB
Duration : 1 h 48 min
Overall bit rate : 481 kb/s
Movie name : Three Thousand Years of Longing (2022) 720p AMZN WEB-DL 10bit AV1 Opus 2.0 PoOlLa
Encoded date : UTC 2022-09-15 06:11:11
Writing application : mkvmerge v67.0.0 (‘Under Stars’) 64-bit
Writing library : libebml v1.4.2 + libmatroska v1.6.4

Video
ID : 1
Format : AV1
Format/Info : AOMedia Video 1
Format profile : Main@L3.1
Codec ID : V_AV1
Duration : 1 h 48 min
Bit rate : 414 kb/s
Width : 1 280 pixels
Height : 534 pixels
Display aspect ratio : 2.40:1
Frame rate mode : Constant
Frame rate : 23.976 (24000/1001) FPS
Color space : YUV
Chroma subsampling : 4:2:0
Bit depth : 10 bits
Bits/(Pixel*Frame) : 0.025
Stream size : 321 MiB (86%)
Default : No
Forced : No
Color range : Limited
Color primaries : BT.709
Transfer characteristics : BT.709
Matrix coefficients : BT.709

Audio
ID : 2
Format : Opus
Codec ID : A_OPUS
Duration : 1 h 48 min
Bit rate : 64.4 kb/s
Channel(s) : 2 channels
Channel layout : L R
Sampling rate : 48.0 kHz
Frame rate : 50.000 FPS (960 SPF)
Bit depth : 32 bits
Compression mode : Lossy
Stream size : 49.9 MiB (13%)
Language : English
Default : Yes
Forced : No

Text
ID : 3
Format : UTF-8
Codec ID : S_TEXT/UTF8
Codec ID/Info : UTF-8 Plain Text
Stream size : 35.9 KiB (0%)
Language : English

Telegram  Download Guide  Donate

Three Thousand Years of Longing (2022)
Three Thousand Years of Longing (2022)
Three Thousand Years of Longing (2022)
Three Thousand Years of Longing (2022)
Three Thousand Years of Longing (2022)
Three Thousand Years of Longing (2022)
Three Thousand Years of Longing (2022)
Original title Three Thousand Years of Longing
IMDb Rating 6.9 9,579 votes
TMDb Rating 6.94 117 votes

Director

Cast

Tilda Swinton isAlithea Binnie
Alithea Binnie
Erdil Yaşaroğlu isProf. Günhan
Prof. Günhan
Kaan Guldur isYoung Murad IV
Young Murad IV
Alyla Browne isYoung Alithea
Young Alithea
Nicola Mouawad isKing Solomon
King Solomon
Angie Tricker isNarratologist
Narratologist
Hayley Gia Hughes isLondon Uni. Student
London Uni. Student

Similar titles

Eka (2018)
A Hero (2021)
Ghost World (2001)
Valley of Flowers (2006)
Hustle (2022)
Sillunu Oru Kaadhal (2006)
The Song of Sparrows (2008)
House of Flying Daggers (2004)
Wheel of Fortune and Fantasy (2021)
Taare Zameen Par (2007)
Climax
Investigation of a Citizen Above Suspicion (1970)