Video Sources 0 Views

  • Watch trailer
Top Gun: Maverick (2022)

Top Gun: Maverick (2022)

Feel the need... The need for speed.May. 24, 2022United States131 Min.PG-13
Your rating: 0
10 1 vote

Synopsis

After more than thirty years of service as one of the Navy’s top aviators, and dodging the advancement in rank that would ground him, Pete “Maverick” Mitchell finds himself training a detachment of TOP GUN graduates for a specialized mission the likes of which no living pilot has ever seen.

After more than thirty years of service as one of the Navy’s top aviators, and dodging the advancement in rank that would ground him, Pete “Maverick” Mitchell finds himself training a detachment of TOP GUN graduates for a specialized mission the likes of which no living pilot has ever seen.

Top Gun Maverick (2022) 1080p WEB-DL AV1 HDR10 Opus 5.1 PoOlLa (1 GB)

Format : Matroska
Format version : Version 4
File size : 1.08 GiB
Duration : 2 h 10 min
Overall bit rate : 1 191 kb/s
Movie name : Top Gun Maverick (2022) 1080p WEB-DL AV1 HDR10 Opus 5.1 PoOlLa
Writing application : mkvmerge v67.0.0 (‘Under Stars’) 64-bit
Writing library : libebml v1.4.2 + libmatroska v1.6.4

Video
ID : 1
Format : AV1
Format/Info : AOMedia Video 1
Format profile : Main@L4.0
Codec ID : V_AV1
Duration : 2 h 10 min
Bit rate : 916 kb/s
Width : 1 920 pixels
Height : 1 012 pixels
Display aspect ratio : 1.897
Frame rate mode : Constant
Frame rate : 23.976 (24000/1001) FPS
Color space : YUV
Chroma subsampling : 4:2:0
Bit depth : 10 bits
Bits/(Pixel*Frame) : 0.020
Stream size : 853 MiB (77%)
Default : No
Forced : No
Color range : Limited
Color primaries : BT.2020
Transfer characteristics : PQ
Matrix coefficients : BT.2020 non-constant

Audio
ID : 2
Format : Opus
Codec ID : A_OPUS
Duration : 2 h 10 min
Bit rate : 273 kb/s
Channel(s) : 6 channels
Channel layout : L R C Lb Rb LFE
Sampling rate : 48.0 kHz
Frame rate : 50.000 FPS (960 SPF)
Bit depth : 32 bits
Compression mode : Lossy
Delay relative to video : -7 ms
Stream size : 254 MiB (23%)
Language : English
Default : Yes
Forced : No

Text
ID : 3
Format : UTF-8
Codec ID : S_TEXT/UTF8
Codec ID/Info : UTF-8 Plain Text
Language : English

Top Gun Maverick (2022) IMAX 720p AMZN WEB-DL AV1 10bit Opus 2.0 PoOlLa (590 MB)

Format : Matroska
Format version : Version 4
File size : 590 MiB
Duration : 2 h 10 min
Overall bit rate : 633 kb/s
Movie name : Top Gun Maverick (2022) IMAX 720p AMZN WEB-DL AV1 10bit Opus 2.0 PoOlLa
Writing application : mkvmerge v67.0.0 (‘Under Stars’) 64-bit
Writing library : libebml v1.4.2 + libmatroska v1.6.4

Video
ID : 1
Format : AV1
Format/Info : AOMedia Video 1
Format profile : Main@L3.1
Codec ID : V_AV1
Duration : 2 h 10 min
Bit rate : 556 kb/s
Width : 1 280 pixels
Height : 694 pixels
Display aspect ratio : 1.85:1
Frame rate mode : Constant
Frame rate : 23.976 (24000/1001) FPS
Color space : YUV
Chroma subsampling : 4:2:0
Bit depth : 10 bits
Bits/(Pixel*Frame) : 0.026
Stream size : 518 MiB (88%)
Default : Yes
Color range : Limited
Color primaries : BT.709
Transfer characteristics : BT.709
Matrix coefficients : BT.709

Audio
ID : 2
Format : Opus
Codec ID : A_OPUS
Duration : 2 h 10 min
Bit rate : 72.4 kb/s
Channel(s) : 2 channels
Channel layout : L R
Sampling rate : 48.0 kHz
Frame rate : 50.000 FPS (960 SPF)
Compression mode : Lossy
Stream size : 67.4 MiB (11%)
Language : English
Default : Yes
Forced : No

Text #1
ID : 3
Format : UTF-8
Codec ID : S_TEXT/UTF8
Language : English
Language : Arabic
Language : Bulgarian
Language : Czech
Language : Danish
Language : Greek
Language : Estonian
Language : Finnish
Language : French
Language : Hebrew
Language : Hindi
Language : Hungarian
Language : Indonesian
Language : Japanese
Language : Lithuanian
Language : Latvian
Language : Malay
Language : Norwegian
Language : Polish
Language : Portuguese
Language : Russian
Language : Slovak
Language : Slovenian
Language : Swedish
Language : Thai
Language : Turkish
Language : Ukrainian
Language : Vietnamese
Language : Chinese

Telegram  Download Guide  Donate

Top Gun: Maverick (2022)
Top Gun: Maverick (2022)
Top Gun: Maverick (2022)
Top Gun: Maverick (2022)
Top Gun: Maverick (2022)
Top Gun: Maverick (2022)
Top Gun: Maverick (2022)
Top Gun: Maverick (2022)
Top Gun: Maverick (2022)
Top Gun: Maverick (2022)
Original title Top Gun: Maverick
IMDb Rating 8.5 282,928 votes
TMDb Rating 8.33 2,412 votes

Director

Cast

Tom Cruise isCapt. Pete 'Maverick' Mitchell
Capt. Pete 'Maverick' Mitchell
Miles Teller isLt. Bradley 'Rooster' Bradshaw
Lt. Bradley 'Rooster' Bradshaw
Jennifer Connelly isPenny Benjamin
Penny Benjamin
Jon Hamm isAdm. Beau 'Cyclone' Simpson
Adm. Beau 'Cyclone' Simpson
Glen Powell isLt. Jake 'Hangman' Seresin
Lt. Jake 'Hangman' Seresin
Ed Harris isRadm. Chester 'Hammer' Cain
Radm. Chester 'Hammer' Cain
Val Kilmer isAdm. Tom 'Iceman' Kazansky
Adm. Tom 'Iceman' Kazansky
Lewis Pullman isLt. Robert 'Bob' Floyd
Lt. Robert 'Bob' Floyd
Charles Parnell isAdm. Solomon 'Warlock' Bates
Adm. Solomon 'Warlock' Bates
Bashir Salahuddin isWo-1. Bernie 'Hondo' Coleman
Wo-1. Bernie 'Hondo' Coleman

Similar titles

Only the Valiant (1951)
Kanchana Sita
House of Flying Daggers (2004)
Siberiade (1979)
Kudumbakodathi
Vijay Superum Pournamiyum (2019)
Jab We Met (2007)
Narasimham(2000)
The Blind Side (2009)
Batman: The Long Halloween, Part One (2021)
The Taste of Tea (2004)
Kalippattam (1993)