Vendhu Thanindhathu Kaadu (2022)

Vendhu Thanindhathu Kaadu (2022)

Part 1 - The KindlingSep. 15, 2022172 Min.
Your rating: 0
9 1 vote

Synopsis

A youngster from Tamil Nadu goes to Bombay in search of a better life and gets sucked into the underworld. Will he be able to find a way out of the violence and bloodshed?

Vendhu Thanindhathu Kaadu (2022) 2160p WEB-DL 10bit AV1 DDP 5.1-SMK (2 GB)

Format : Matroska
Format version : Version 4
File size : 2.02 GiB
Duration : 2 h 52 min
Overall bit rate : 1 683 kb/s
Movie name : Vendhu.Thanindhathu.Kaadu.2022.2160p.10bit.AV1.DDP.5.1-SMK
Writing application : mkvmerge v70.0.0 (‘Caught A Lite Sneeze’) 64-bit
Writing library : libebml v1.4.2 + libmatroska v1.6.4 / Lavf59.31.100

Video
ID : 1
Format : AV1
Format/Info : AOMedia Video 1
Format profile : Main@L5.0
Codec ID : V_AV1
Duration : 2 h 52 min
Bit rate : 1 361 kb/s
Width : 3 840 pixels
Height : 1 600 pixels
Display aspect ratio : 2.40:1
Frame rate mode : Constant
Frame rate : 24.000 FPS
Color space : YUV
Chroma subsampling : 4:2:0
Bit depth : 10 bits
Bits/(Pixel*Frame) : 0.009
Stream size : 1.64 GiB (81%)
Writing library : Lavc59.43.100 libsvtav1
Default : Yes
Forced : No
Color range : Limited
Color primaries : BT.709
Transfer characteristics : BT.709
Matrix coefficients : BT.709

Audio
ID : 2
Format : E-AC-3
Format/Info : Enhanced AC-3
Commercial name : Dolby Digital Plus
Codec ID : A_EAC3
Duration : 2 h 52 min
Bit rate mode : Constant
Bit rate : 320 kb/s
Channel(s) : 6 channels
Channel layout : L R C LFE Ls Rs
Sampling rate : 48.0 kHz
Frame rate : 31.250 FPS (1536 SPF)
Compression mode : Lossy
Delay relative to video : -83 ms
Stream size : 394 MiB (19%)
Language : Tamil
Service kind : Complete Main
Default : Yes
Forced : No

Text
ID : 3
Format : UTF-8
Codec ID : S_TEXT/UTF8
Codec ID/Info : UTF-8 Plain Text
Language : English

Vendhu Thanindhathu Kaadu Part 1 The Kindling (2022) 1080p AMZN WEB-DL HEVC HDR10+ AAC 5.1 PoOlLa (1.95 GB)

Format : Matroska
Format version : Version 4
File size : 1.98 GiB
Duration : 2 h 52 min
Overall bit rate : 1 645 kb/s
Movie name : Vendhu Thanindhathu Kaadu Part 1 The Kindling (2022) 1080p AMZN WEB-DL HEVC HDR10+ AAC 5.1 PoOlLa
Writing application : mkvmerge v67.0.0 (‘Under Stars’) 64-bit
Writing library : libebml v1.4.2 + libmatroska v1.6.4

Video
ID : 1
Format : HEVC
Format/Info : High Efficiency Video Coding
Format profile : Main 10@L4@High
HDR format : SMPTE ST 2094 App 4, Version 1, HDR10+ Profile B compatible
Codec ID : V_MPEGH/ISO/HEVC
Duration : 2 h 52 min
Bit rate : 1 322 kb/s
Width : 1 920 pixels
Height : 800 pixels
Display aspect ratio : 2.40:1
Frame rate mode : Constant
Frame rate : 24.000 FPS
Color space : YUV
Chroma subsampling : 4:2:0 (Type 0)
Bit depth : 10 bits
Bits/(Pixel*Frame) : 0.036
Stream size : 1.59 GiB (80%)
Default : Yes
Forced : No
Color range : Limited
Color primaries : BT.2020
Transfer characteristics : PQ
Matrix coefficients : BT.2020 non-constant
Mastering display color primaries : BT.2020
Mastering display luminance : min: 0.0001 cd/m2, max: 1000 cd/m2
Maximum Content Light Level : 1000 cd/m2
Maximum Frame-Average Light Level : 400 cd/m2

Audio
ID : 2
Format : AAC LC
Format/Info : Advanced Audio Codec Low Complexity
Codec ID : A_AAC-2
Duration : 2 h 52 min
Bit rate : 320 kb/s
Channel(s) : 6 channels
Channel layout : C L R Ls Rs LFE
Sampling rate : 48.0 kHz
Frame rate : 46.875 FPS (1024 SPF)
Compression mode : Lossy
Stream size : 394 MiB (19%)
Language : Tamil
Default : No

Text
ID : 3
Format : UTF-8
Codec ID : S_TEXT/UTF8
Codec ID/Info : UTF-8 Plain Text
Language : English

Telegram  Download Guide  Donate

Vendhu Thanindhathu Kaadu (2022)
Vendhu Thanindhathu Kaadu (2022)
Vendhu Thanindhathu Kaadu (2022)
Vendhu Thanindhathu Kaadu (2022)
Vendhu Thanindhathu Kaadu (2022)
Vendhu Thanindhathu Kaadu (2022)
Vendhu Thanindhathu Kaadu (2022)
Vendhu Thanindhathu Kaadu (2022)
Original title வெந்து தணிந்தது காடு
TMDb Rating 8 1 votes

Director

Cast

Similar titles

Cha Cha Real Smooth (2022)
Angamaly Diaries
Lansky (2021)
Antonia’s Line (1996)
Cure (1997)
Heat (1995)
F.I.R.
The Postcard Killings (2020)
Naanum Rowdydhaan (2015)
Tom Clancy’s Without Remorse (2021)
7Aum Arivu
Felicia’s Journey (1999)